2 сезон

iTunes

MVO

1

2 сезон

iTunes

iTunes

1 сезон

RePack

30

Новинка

ВАЖНО

ИГРА 18+

pack

RePack

MK11
pack

Легкие деньги

RePack

jed

RePack

fifa19

RePack

RDR2

RePack

NEED FOR SPEED™ PAYBACK

4 сезон

9 сезон

Бесстыжие 9 сезон

Все сериалы

все сериалы на PB.wtf

RePack

FAR CRY 5

Anonymous, добрый день, мы не успеваем собрать деньги на оплату серверов за декабрь и январь, помогите нам пожалуйста в это трудное время. В качестве благодарности мы отключим Вам всю рекламу на сайте (укажите свой ник в строку Ваше имя)!

×
  
Magnet ссылка

Прыжок из космоса (Гала Концерт) [2002 г., документальный, история, катастрофа, космос, DVB, Русский] pb.wtf

Прыжок из космоса через торрент pb.wtf

Размер: 553 MB | Добавлен: 4 года 10 мес. назад | Торрент скачан:44 раза
Скачать  

20-03-2016 05:17 Прыжок из космоса Скачать торрент  

Прыжок из космоса
Год выпуска: 2002
Страна: Россия
Жанр: документальный, история, катастрофа, космос
Продолжительность: 00:25:35
Перевод: Не требуется Русский

Режиссер: Гала Концерт

Описание: В ноябре 1962 года двое советских парашютистов-испытателей совершили прыжок из ближнего космоса. Они покинули капсулу корабля "Восток", поднятую на высоту 25-и километров на стратостате. Один мгновенно погиб по трагической случайности. Второй - устремился к Земле со скоростью реактивного самолёта.

Качество: DVB
Формат: TS
Видео кодек: AVC
Аудио кодек: MP2
Видео: AVC, 720x576 (16:9), 25.000 fps, 2 679 Kbps (0.258 bit/pixel)
Аудио: MP2, 48.0 KHz, 2 ch, 192 Kbps, CBR

Код:

Формат                                   : MPEG-TS
Размер файла                             : 553 Мбайт
Продолжительность                        : 25 м.
Режим общего битрейта                    : Переменный
Общий поток                              : 3022 Кбит/сек

Видео
Идентификатор                            : 301 (0x12D)
Идентификатор меню                       : 1 (0x1)
Формат                                   : AVC
Формат/Информация                        : Advanced Video Codec
Профиль формата                          : Main@L3
Параметр CABAC формата                   : Да
Параметр ReFrames формата                : 3 кадра
Параметр GOP формата                     : M=4, N=28
Идентификатор кодека                     : 27
Продолжительность                        : 25 м.
Битрейт                                  : 2679 Кбит/сек
Ширина                                   : 720 пикселей
Высота                                   : 576 пикселей
Соотношение сторон                       : 16:9
Частота кадров                           : 25,000 кадров/сек
Стандарт вещания                         : Component
Цветовое пространство                    : YUV
Субдискретизация насыщенности            : 4:2:0
Битовая глубина                          : 8 бит
Тип развёртки                            : Чересстрочная
Метод сохранения типа развёртки          : Раздельные поля
Порядок развёртки                        : Верхнее поле первое
Бит/(Пиксели*Кадры)                      : 0.258
Размер потока                            : 490 Мбайт (89%)
Цветовой диапазон                        : Limited
Основные цвета                           : BT.601 PAL
Характеристики трансфера                 : BT.470 System B, BT.470 System G
Коэффициенты матрицы                     : BT.601

Аудио
Идентификатор                            : 302 (0x12E)
Идентификатор меню                       : 1 (0x1)
Формат                                   : MPEG Audio
Версия формата                           : Version 1
Профиль формата                          : Layer 2
Идентификатор кодека                     : 3
Продолжительность                        : 25 м.
Вид битрейта                             : Постоянный
Битрейт                                  : 192 Кбит/сек
Каналы                                   : 2 канала
Частота                                  : 48,0 КГц
Метод сжатия                             : С потерями
Размер потока                            : 35,1 Мбайт (6%)

pb.wtf



Скачать Прыжок из космоса через торрент http://s017.radikal.ru/i426/1603/4a/9e38da57ae10.png Скачать фильм Прыжок из космоса через торрент бесплантно в хорошем качестве Описание: В ноябре 1962 года двое советских парашютистов-испытателей совершили прыжок из ближнего космоса. Они покинули капсулу корабля ... 10 10 5
Info! Золотая раздача, скачанное не засчитывается.
Торрент: Зарегистрирован [2016-03-20 05:17] · скачан: 44 раз
Статус: √ проверено
Размер: 553 MB
Как cкачать? Как скачать Прыжок из космоса через торрент | UTorrent

% Раздел Тема Автор DL S | L
BBC [ 1.45 GB ] Прыжок из космоса / Space Dive - The Red Bull Stratos Story [2012 документальный MVO] кэп Скачать
1 | 0

28-11-2019 20:33  

Отключить всю рекламу на сайте

    Дорогой пользователь! Огромная просьба, поблагодарите релизера, оцените раздачу и оставьте свои комментарий, если Вы скачали Прыжок из космоса через торрент бесплатно! Внесите свою лепту в развитие PiratBit!
    Комментировать посты могут только пользователи прошедшие не сложную регистрацию
    Показать сообщения:    

    Прыжок из космоса через торрент
    Скачать бесплатно Прыжок из космоса
    Прыжок из космоса скачать торрент
    Прыжок из космоса смотреть онлайн
    Cкачать фильм Прыжок из космоса бесплатно
    Прыжок из космоса скачать торрент в хорошем качестве
    Прыжок из космоса смотреть онлайн бесплатно в хорошем качестве


    Вы не можете начинать темы
    Вы не можете отвечать на сообщения
    Вы не можете редактировать свои сообщения
    Вы не можете удалять свои сообщения
    Вы не можете голосовать в опросах
    Вы не можете прикреплять файлы к сообщениям
    Вы можете скачивать файлы