Ссылка на приватное зеркало нашего сайта всего за 1$. Внимание количество ограничено!!!

2 сезон

iTunes

1 сезон

1

2 сезон

2 сезон

iTunes

1 сезон

RePack

30

Ultimate

ВАЖНО

ИГРА 18+

pack

RePack

MK11
pack

Забери бонус

RePack

jed

!!Акция!!

Alien_Rage

RePack

fifa19

RePack

Assassins Creed: Odyssey

RePack

NEED FOR SPEED™ PAYBACK

4 сезон

9 сезон

Бесстыжие 9 сезон

Все сериалы

все сериалы на PB.wtf

RePack

FAR CRY 5
  

Детоксикация / D-Tox (Джим Гиллеспи / Jim Gillespie) [2002, ужасы, боевик, триллер, BDRemux 1080p] pb.wtf

Детоксикация через торрент pb.wtf

Размер: 27.03 GB | Добавлен: 4 года 8 мес. назад | Торрент скачан:19 раз
Скачать  

20-03-2016 06:13 Детоксикация Скачать торрент  

Информация о фильме

Название: Детоксикация
Оригинальное название: D-Tox
Год выхода: 2002
Жанр: ужасы, боевик, триллер
Страна: Германия, США
Продолжительность: 01:35:44
Перевод: Профессиональный (многоголосый, закадровый) 2 варианта
Перевод: Профессиональный (двухголосый, закадровый) Петр Гланц, Инна Королева
Перевод: Любительский (двухголосый, закадровый)
Перевод: Авторский (одноголосый, закадровый) 2 варианта
Субтитры: русские, английские

Режиссер: Джим Гиллеспи / Jim Gillespie

В ролях:

Сильвестр Сталлоне, Чарльз С. Даттон, Полли Уокер, Крис Кристофферсон, Миф, Кристофер Фулфорд,

Джеффри Райт, Роберт Патрик, Том Беренджер, Стивен Лэнг, Алан С. Петерсон

Описание:

Агент ФБР Джейк Малой стал свидетелем зверского убийства. Джейку так и не удалось справиться с пережитым шоком: он начинает искать забвение в алкоголе. Пытаясь вернуться в нормальной жизни, агент соглашается пройти детоксикацию в закрытой клинике для «опустившихся» полицейских. Клиника отрезана от внешнего мира и расположена глубоко в заснеженном лесу. Здесь проходит курс лечения разношерстная группа пациентов служителей закона «с отклонениями».Однако эта компания так и не успеет излечиться от пагубных пристрастий: их пребывание в клинике превращается в жуткий и кровавый кошмар. Мрачные стены лечебницы содрогаются от невероятных по своей жестокости убийств. Кто-то начинает умерщвлять обитателей клиники одного за другим. И, что самое страшное, агент Малой узнает почерк убийцы



Файл

Кодек: VC-1 Video
Качество: BDRemux 1080p
Формат: MKV
Видео: VC-1 Video 29787 kbps 1080p / 23,976 fps / 16:9 / Advanced Profile 3

Звук:

Аудио 1: DTS Audio Russian 5.1 / 48 kHz / 768 kbps / 24-bit [CEE]

Аудио 2: Dolby Digital Audio Russian 2.0 / 48 kHz / 192 kbps [ОРТ]

Аудио 2: Dolby Digital Audio Russian 2.0 / 48 kHz / 192 kbps [DVO]

Аудио 3: Dolby Digital Audio Russian 5.1 / 48 kHz / 384 kbps [Гаврилов]

Аудио 4: Dolby Digital Audio Russian 2.0 / 48 kHz / 192 kbps [Рябов]

Аудио 5: DTS-HD Master Audio Russian 5.1 / 48 kHz / 4295 kbps / 24-bit (DTS Core: 5.1 / 48 kHz / 1509 kbps / 24-bit)

Аудио 6: DTS-HD Master Audio English 5.1 / 48 kHz / 4473 kbps / 24-bit (DTS Core: 5.1 / 48 kHz / 1509 kbps / 24-bit)
General
Unique ID : 245665450162934163128945496516737516530 (0xB8D171D65A5B2C68B283D175B86243F2)
Complete name : J:\D-Tox.2002.1080p.Bluray.VC1.Remux.mkv
Format : Matroska
Format version : Version 2
File size : 27.0 GiB
Duration : 1h 35mn
Overall bit rate : 40.4 Mbps
Movie name : D-Tox.2002.1080p.Bluray.VC1.Remux
Encoded date : UTC 2011-08-29 10:21:32
Writing application : mkvmerge v4.9.1 ('Ich will') сборка от Jul 11 2011 23:53:15
Writing library : libebml v1.2.1 + libmatroska v1.1.1

Video
ID : 1
Format : VC-1
Format profile : AP@L3
Codec ID : WVC1
Codec ID/Hint : Microsoft
Duration : 1h 35mn
Bit rate : 34.8 Mbps
Width : 1 920 pixels
Height : 1 080 pixels
Display aspect ratio : 16:9
Frame rate : 23.976 fps
Chroma subsampling : 4:2:0
Bit depth : 8 bits
Scan type : Progressive
Compression mode : Lossy
Bits/(Pixel*Frame) : 0.699
Stream size : 23.2 GiB (86%)
Title : uralmix

Audio #1
ID : 2
Format : DTS
Format/Info : Digital Theater Systems
Codec ID : A_DTS
Duration : 1h 35mn
Bit rate mode : Constant
Bit rate : 755 Kbps
Channel(s) : 6 channels
Channel positions : Front: L C R, Side: L R, LFE
Sampling rate : 48.0 KHz
Bit depth : 24 bits
Compression mode : Lossy
Stream size : 517 MiB (2%)
Title : CEE
Language : Russian

Audio #2
ID : 3
Format : AC-3
Format/Info : Audio Coding 3
Mode extension : CM (complete main)
Codec ID : A_AC3
Duration : 1h 35mn
Bit rate mode : Constant
Bit rate : 192 Kbps
Channel(s) : 2 channels
Channel positions : Front: L R
Sampling rate : 48.0 KHz
Bit depth : 16 bits
Compression mode : Lossy
Stream size : 131 MiB (0%)
Title : Первый канал
Language : Russian

Audio #3
ID : 4
Format : AC-3
Format/Info : Audio Coding 3
Mode extension : CM (complete main)
Codec ID : A_AC3
Duration : 1h 35mn
Bit rate mode : Constant
Bit rate : 192 Kbps
Channel(s) : 2 channels
Channel positions : Front: L R
Sampling rate : 48.0 KHz
Bit depth : 16 bits
Compression mode : Lossy
Stream size : 131 MiB (0%)
Title : двухголосый
Language : Russian

Audio #4
ID : 5
Format : AC-3
Format/Info : Audio Coding 3
Mode extension : CM (complete main)
Codec ID : A_AC3
Duration : 1h 35mn
Bit rate mode : Constant
Bit rate : 384 Kbps
Channel(s) : 6 channels
Channel positions : Front: L C R, Side: L R, LFE
Sampling rate : 48.0 KHz
Bit depth : 16 bits
Compression mode : Lossy
Stream size : 263 MiB (1%)
Title : авторский - Андрей Гаврилов
Language : Russian

Audio #5
ID : 6
Format : AC-3
Format/Info : Audio Coding 3
Mode extension : CM (complete main)
Codec ID : A_AC3
Duration : 1h 35mn
Bit rate mode : Constant
Bit rate : 192 Kbps
Channel(s) : 2 channels
Channel positions : Front: L R
Sampling rate : 48.0 KHz
Bit depth : 16 bits
Compression mode : Lossy
Stream size : 131 MiB (0%)
Title : авторский - Сергей Рябов
Language : Russian

Audio #6
ID : 7
Format : DTS
Format/Info : Digital Theater Systems
Format profile : MA / Core
Codec ID : A_DTS
Duration : 1h 35mn
Bit rate mode : Variable
Bit rate : 1 561 Kbps / 1 510 Kbps
Channel(s) : 6 channels
Channel positions : Front: L C R, Side: L R, LFE
Sampling rate : 48.0 KHz
Bit depth : 24 bits
Compression mode : Lossless / Lossy
Title : Петр Гланц и Инна Королева
Language : Russian

Audio #7
ID : 8
Format : DTS
Format/Info : Digital Theater Systems
Format profile : MA / Core
Codec ID : A_DTS
Duration : 1h 35mn
Bit rate mode : Variable
Bit rate : 1 576 Kbps / 1 510 Kbps
Channel(s) : 6 channels
Channel positions : Front: L C R, Side: L R, LFE
Sampling rate : 48.0 KHz
Bit depth : 24 bits
Compression mode : Lossless / Lossy
Language : English

Text #1
ID : 9
Format : UTF-8
Codec ID : S_TEXT/UTF8
Codec ID/Info : UTF-8 Plain Text
Language : Russian

Text #2
ID : 10
Format : UTF-8
Codec ID : S_TEXT/UTF8
Codec ID/Info : UTF-8 Plain Text
Language : English

Menu
00:00:00.000 : en:00:00:00.000
00:03:18.824 : en:00:03:18.824
00:09:02.834 : en:00:09:02.834
00:16:05.548 : en:00:16:05.548
00:20:18.676 : en:00:20:18.676
00:24:21.418 : en:00:24:21.418
00:31:14.331 : en:00:31:14.331
00:35:17.907 : en:00:35:17.907
00:40:20.752 : en:00:40:20.752
00:45:36.651 : en:00:45:36.651
00:52:41.075 : en:00:52:41.075
00:58:17.452 : en:00:58:17.452
01:04:26.321 : en:01:04:26.321
01:09:36.422 : en:01:09:36.422
01:16:10.941 : en:01:16:10.941
01:22:41.081 : en:01:22:41.081
01:25:57.986 : en:01:25:57.986
01:31:41.454 : en:01:31:41.454
pb.wtf



Скачать Детоксикация через торрент http://lostpic.net/images/f8116532c8a8db9af50159fd397f4b43.png Скачать фильм Детоксикация через торрент бесплантно в хорошем качестве Описание: Агент ФБР Джейк Малой стал свидетелем зверского убийства. Джейку так и не удалось справиться с пережитым шоком: он начинает ... 7 10 3
Info! Золотая раздача, скачанное не засчитывается.
Торрент: Зарегистрирован [2016-03-20 06:13] · скачан: 19 раз
Статус: √ проверено
Размер: 27.03 GB
Как cкачать? Как скачать Детоксикация через торрент | qTorrent

% Раздел Тема Автор DL S | L
Фильмы [HD 720p, 1080p] (Хороший звук DUB, MVO) [ 9.33 GB ] Детоксикация / D-Tox [2002 BDRip 1080p] MVO+2xAVO+DVO bober100 Скачать
1 | 0
Фильмы 2001-2005 [ 4.21 GB ] Детоксикация / D-Tox [2002 ... BDRip ] Simons cat Скачать
1 | 0

28-11-2019 20:33  

Отключить всю рекламу на сайте

    Дорогой пользователь! Огромная просьба, поблагодарите релизера, оцените раздачу и оставьте свои комментарий, если Вы скачали Детоксикация через торрент бесплатно! Внесите свою лепту в развитие PiratBit!
    Комментировать посты могут только пользователи прошедшие не сложную регистрацию
    Показать сообщения:    

    Детоксикация через торрент
    Скачать бесплатно Детоксикация
    Детоксикация скачать торрент
    Детоксикация смотреть онлайн
    Cкачать фильм Детоксикация бесплатно
    Детоксикация скачать торрент в хорошем качестве
    Детоксикация смотреть онлайн бесплатно в хорошем качестве


    Вы не можете начинать темы
    Вы не можете отвечать на сообщения
    Вы не можете редактировать свои сообщения
    Вы не можете удалять свои сообщения
    Вы не можете голосовать в опросах
    Вы не можете прикреплять файлы к сообщениям
    Вы можете скачивать файлы