Ссылка на приватное зеркало нашего сайта всего за 1$. Внимание количество ограничено!!!

2 сезон

iTunes

1 сезон

1

iTunes

iTunes

iTunes

1 сезон

RePack

30

ИГРА 18+

pack

ВАЖНО

!!Акция!!

Alien_RageХит недели

RePack

MK11
pack

Забери бонус

RePack

jed

!!Акция!!

Alien_Rage

RePack

fifa19

RePack

Assassins Creed: Odyssey

RePack

NEED FOR SPEED™ PAYBACK

4 сезон

9 сезон

Бесстыжие 9 сезон

Все сериалы

все сериалы на PB.wtf

RePack

FAR CRY 5
  

Бёрдмэн / Birdman or (The Unexpected Virtue of Ignorance) (Алехандро Гонсалес Иньярриту / Alejandro González Iñárritu) [2014, драма, комедия, BDRip 720p от potroks] DUB, DVO, AVO pb.wtf

Бёрдмэн через торрент pb.wtf

Размер: 7.29 GB | Добавлен: 4 года 7 мес. назад | Торрент скачан:139 раз
Скачать  

20-03-2016 09:26 Бёрдмэн Скачать торрент  

Бёрдмэн / Birdman or (The Unexpected Virtue of Ignorance)
Год выпуска: 2014
Страна: США, Канада / New Regency Pictures, Grisbi Productions...
Жанр: драма, комедия
Продолжительность: 01:59:17
Перевод: Дубляж [BD CEE], Профессиональный (двухголосый) [Кубик в Кубе], Авторский (одноголосый) [Ю.Сербин, Д.Есарев, А.Матвеев]
Субтитры: русские (форс.), русские (Матвеев), русские (iTunes), украинские (полные + форс.), английские (Full + SDH + SDH-Colored)
Навигация по главам: есть
Режиссер: Алехандро Гонсалес Иньярриту / Alejandro González Iñárritu
В ролях:

Майкл Китон (Riggan), Эдвард Нортон (Mike), Эмма Стоун (Sam), Наоми Уоттс (Lesley), Зак Галифианакис (Jake), Андреа Райзборо (Laura), Эми Райан (Sylvia), Линдси Дункан (Tabitha), Дэмиэн Янг (Gabriel), Джереми Шамос (Ralph), Кенни Чин (Korean Grocer), Жамаль Гаррисон-Лоу (Stagehand (Daniel))
Описание: В центре сюжета бывший актер, некогда сыгравший роль популярного супергероя Бёрдмэна, и теперь, переступая через свое эго, он решает принять участие в новой бродвейской постановке с целью вернуть себе былую славу, блеск и величие.

Качество: BDRip 720p
Формат: MKV
Видео кодек: AVC
Аудио кодек: AC3, DTS
Видео: AVC, 1280x694 (16:9), 4400 kbps, 23,976 fps, 0,207 bit/pixel
Аудио №1: DTS / 5.1 / 48 kHz / 755 kbps / 24 bit | DUB - Blu-Ray CEE
Аудио №2: AC3 / 5.1 / 48 kHz / 640 kbps / 16 bit | DVO - Кубик в Кубе
Аудио №3: AC3 / 5.1 / 48 kHz / 384 kbps / 16 bit | AVO - Ю.Сербин
Аудио №4: AC3 / 5.1 / 48 kHz / 640 kbps / 16 bit | AVO - А.Матвеев
Аудио №5: AC3 / 5.1 / 48 kHz / 640 kbps / 16 bit | AVO - Д.Есарев
Аудио №6: AC3 / 5.1 / 48 kHz / 640 kbps / 16 bit | UKR - Цікава ідея
Аудио №7: AC3 / 5.1 / 48 kHz / 640 kbps / 16 bit | ENG

Отдельно авторские озвучки

Автор рипа: potroks

Код:

MediaInfoLib - v0.7.72

General
Unique ID                           : 237169964242249451441408635328352445507 (0xB26D460AEF1B9245944970F4FD436443)
Complete name                       : Byordmen.2014.DUB.MVO.AVO.UKR.ENG.BDRip.720p.by_potroks.mkv
Format                              : Matroska
Format version                      : Version 4 / Version 2
File size                           : 7.29 GiB
Duration                            : 1h 59mn
Overall bit rate                    : 8 749 Kbps
Movie name                          : Birdman (2014)
Encoded date                        : UTC 2016-03-20 08:58:17
Writing application                 : mkvmerge v5.9.0 ('On The Loose') built on Dec 15 2012 16:39:58
Writing library                     : libebml v1.3.0 + libmatroska v1.4.0

Video
ID                                  : 1
Format                              : AVC
Format/Info                         : Advanced Video Codec
Format profile                      : High@L4.1
Format settings, CABAC              : Yes
Format settings, ReFrames           : 9 frames
Codec ID                            : V_MPEG4/ISO/AVC
Duration                            : 1h 59mn
Bit rate                            : 4 400 Kbps
Width                               : 1 280 pixels
Height                              : 694 pixels
Display aspect ratio                : 1.85:1
Frame rate mode                     : Constant
Frame rate                          : 23.976 fps
Color space                         : YUV
Chroma subsampling                  : 4:2:0
Bit depth                           : 8 bits
Scan type                           : Progressive
Bits/(Pixel*Frame)                  : 0.207
Stream size                         : 3.52 GiB (48%)
Title                               : potroks
Writing library                     : x264 core 130 r2273 b3065e6
Encoding settings                   : cabac=1 / ref=9 / deblock=1:-3:-3 / analyse=0x3:0x133 / me=umh / subme=11 / psy=1 / psy_rd=1.00:0.05 / mixed_ref=1 / me_range=48 / chroma_me=1 / trellis=2 / 8x8dct=1 / cqm=0 / deadzone=21,11 / fast_pskip=0 / chroma_qp_offset=-3 / threads=9 / lookahead_threads=6 / sliced_threads=0 / nr=0 / decimate=0 / interlaced=0 / bluray_compat=0 / constrained_intra=0 / bframes=10 / b_pyramid=2 / b_adapt=2 / b_bias=0 / direct=3 / weightb=1 / open_gop=0 / weightp=2 / keyint=250 / keyint_min=23 / scenecut=40 / intra_refresh=0 / rc_lookahead=60 / rc=2pass / mbtree=0 / bitrate=4400 / ratetol=1.0 / qcomp=0.70 / qpmin=0 / qpmax=69 / qpstep=4 / cplxblur=20.0 / qblur=0.5 / vbv_maxrate=50000 / vbv_bufsize=62500 / nal_hrd=none / ip_ratio=1.35 / pb_ratio=1.25 / aq=1:0.80
Language                            : English
Default                             : Yes
Forced                              : No

Audio #1
ID                                  : 2
Format                              : DTS
Format/Info                         : Digital Theater Systems
Mode                                : 16
Format settings, Endianness         : Big
Codec ID                            : A_DTS
Duration                            : 1h 59mn
Bit rate mode                       : Constant
Bit rate                            : 768 Kbps
Channel(s)                          : 6 channels
Channel positions                   : Front: L C R, Side: L R, LFE
Sampling rate                       : 48.0 KHz
Bit depth                           : 24 bits
Compression mode                    : Lossy
Stream size                         : 655 MiB (9%)
Title                               : Dub | DTS 5.1 @ 768 kbps - Blu-ray EUR
Language                            : Russian
Default                             : Yes
Forced                              : No

Audio #2
ID                                  : 3
Format                              : AC-3
Format/Info                         : Audio Coding 3
Mode extension                      : CM (complete main)
Format settings, Endianness         : Big
Codec ID                            : A_AC3
Duration                            : 1h 59mn
Bit rate mode                       : Constant
Bit rate                            : 640 Kbps
Channel(s)                          : 6 channels
Channel positions                   : Front: L C R, Side: L R, LFE
Sampling rate                       : 48.0 KHz
Bit depth                           : 16 bits
Compression mode                    : Lossy
Stream size                         : 546 MiB (7%)
Title                               : DVO | DD 5.1 @ 640 kbps - Kubik v Kube
Language                            : Russian
Default                             : No
Forced                              : No

Audio #3
ID                                  : 4
Format                              : AC-3
Format/Info                         : Audio Coding 3
Mode extension                      : CM (complete main)
Format settings, Endianness         : Big
Codec ID                            : A_AC3
Duration                            : 1h 59mn
Bit rate mode                       : Constant
Bit rate                            : 384 Kbps
Channel(s)                          : 6 channels
Channel positions                   : Front: L C R, Side: L R, LFE
Sampling rate                       : 48.0 KHz
Bit depth                           : 16 bits
Compression mode                    : Lossy
Stream size                         : 328 MiB (4%)
Title                               : AVO | DD 5.1 @ 384 kbps - Yu.Serbin
Language                            : Russian
Default                             : No
Forced                              : No

Audio #4
ID                                  : 5
Format                              : AC-3
Format/Info                         : Audio Coding 3
Mode extension                      : CM (complete main)
Format settings, Endianness         : Big
Codec ID                            : A_AC3
Duration                            : 1h 59mn
Bit rate mode                       : Constant
Bit rate                            : 640 Kbps
Channel(s)                          : 6 channels
Channel positions                   : Front: L C R, Side: L R, LFE
Sampling rate                       : 48.0 KHz
Bit depth                           : 16 bits
Compression mode                    : Lossy
Stream size                         : 546 MiB (7%)
Title                               : AVO | DD 5.1 @ 640 kbps - A.Matveev
Language                            : Russian
Default                             : No
Forced                              : No

Audio #5
ID                                  : 6
Format                              : AC-3
Format/Info                         : Audio Coding 3
Mode extension                      : CM (complete main)
Format settings, Endianness         : Big
Codec ID                            : A_AC3
Duration                            : 1h 59mn
Bit rate mode                       : Constant
Bit rate                            : 640 Kbps
Channel(s)                          : 6 channels
Channel positions                   : Front: L C R, Side: L R, LFE
Sampling rate                       : 48.0 KHz
Bit depth                           : 16 bits
Compression mode                    : Lossy
Stream size                         : 546 MiB (7%)
Title                               : AVO | DD 5.1 @ 640 kbps - D.Yesarev
Language                            : Russian
Default                             : No
Forced                              : No

Audio #6
ID                                  : 7
Format                              : AC-3
Format/Info                         : Audio Coding 3
Mode extension                      : CM (complete main)
Format settings, Endianness         : Big
Codec ID                            : A_AC3
Duration                            : 1h 59mn
Bit rate mode                       : Constant
Bit rate                            : 640 Kbps
Channel(s)                          : 6 channels
Channel positions                   : Front: L C R, Side: L R, LFE
Sampling rate                       : 48.0 KHz
Bit depth                           : 16 bits
Compression mode                    : Lossy
Stream size                         : 546 MiB (7%)
Title                               : MVO | DD 5.1 @ 640 kbps - Цікава ідея
Language                            : Ukrainian
Default                             : No
Forced                              : No

Audio #7
ID                                  : 8
Format                              : AC-3
Format/Info                         : Audio Coding 3
Mode extension                      : CM (complete main)
Format settings, Endianness         : Big
Codec ID                            : A_AC3
Duration                            : 1h 59mn
Bit rate mode                       : Constant
Bit rate                            : 640 Kbps
Channel(s)                          : 6 channels
Channel positions                   : Front: L C R, Side: L R, LFE
Sampling rate                       : 48.0 KHz
Bit depth                           : 16 bits
Compression mode                    : Lossy
Stream size                         : 546 MiB (7%)
Title                               : Original | DD 5.1 @ 640 kbps
Language                            : English
Default                             : No
Forced                              : No

Text #1
ID                                  : 9
Format                              : UTF-8
Codec ID                            : S_TEXT/UTF8
Codec ID/Info                       : UTF-8 Plain Text
Title                               : Forced
Language                            : Russian
Default                             : Yes
Forced                              : No

Text #2
ID                                  : 10
Format                              : UTF-8
Codec ID                            : S_TEXT/UTF8
Codec ID/Info                       : UTF-8 Plain Text
Title                               : Matveev [Uncensored]
Language                            : Russian
Default                             : No
Forced                              : No

Text #3
ID                                  : 11
Format                              : UTF-8
Codec ID                            : S_TEXT/UTF8
Codec ID/Info                       : UTF-8 Plain Text
Title                               : iTunes
Language                            : Russian
Default                             : No
Forced                              : No

Text #4
ID                                  : 12
Format                              : UTF-8
Codec ID                            : S_TEXT/UTF8
Codec ID/Info                       : UTF-8 Plain Text
Title                               : Forced [potroks]
Language                            : Ukrainian
Default                             : No
Forced                              : No

Text #5
ID                                  : 13
Format                              : UTF-8
Codec ID                            : S_TEXT/UTF8
Codec ID/Info                       : UTF-8 Plain Text
Title                               : iTunes
Language                            : Ukrainian
Default                             : No
Forced                              : No

Text #6
ID                                  : 14
Format                              : UTF-8
Codec ID                            : S_TEXT/UTF8
Codec ID/Info                       : UTF-8 Plain Text
Title                               : Full
Language                            : English
Default                             : No
Forced                              : No

Text #7
ID                                  : 15
Format                              : UTF-8
Codec ID                            : S_TEXT/UTF8
Codec ID/Info                       : UTF-8 Plain Text
Title                               : SDH
Language                            : English
Default                             : No
Forced                              : No

Text #8
ID                                  : 16
Format                              : UTF-8
Codec ID                            : S_TEXT/UTF8
Codec ID/Info                       : UTF-8 Plain Text
Title                               : SDH-Colored
Language                            : English
Default                             : No
Forced                              : No

Menu
00:00:00.000                        : en:Chapter 01
00:03:29.083                        : en:Chapter 02
00:07:34.328                        : en:Chapter 03
00:09:08.506                        : en:Chapter 04
00:12:39.717                        : en:Chapter 05
00:16:53.220                        : en:Chapter 06
00:19:07.729                        : en:Chapter 07
00:20:21.803                        : en:Chapter 08
00:25:21.311                        : en:Chapter 09
00:31:44.694                        : en:Chapter 10
00:36:09.959                        : en:Chapter 11
00:37:12.980                        : en:Chapter 12
00:42:09.318                        : en:Chapter 13
00:48:49.676                        : en:Chapter 14
00:53:30.957                        : en:Chapter 15
00:58:31.257                        : en:Chapter 16
01:03:17.627                        : en:Chapter 17
01:08:28.938                        : en:Chapter 18
01:12:42.649                        : en:Chapter 19
01:17:01.700                        : en:Chapter 20
01:20:45.048                        : en:Chapter 21
01:25:14.317                        : en:Chapter 22
01:28:05.488                        : en:Chapter 23
01:33:22.388                        : en:Chapter 24
01:39:14.573                        : en:Chapter 25
01:43:10.726                        : en:Chapter 26
01:46:43.688                        : en:Chapter 27
01:52:16.813                        : en:Chapter 28

pb.wtf



Скачать Бёрдмэн через торрент http://i73.fastpic.ru/big/2016/0320/e7/8bb758ecf06a4446bdf89b438bfb8ce7.png Скачать фильм Бёрдмэн через торрент бесплантно в хорошем качестве Описание: В центре сюжета бывший актер, некогда сыгравший роль популярного супергероя Бёрдмэна, и теперь, переступая через свое эго, он ... 9.4 10 5
Info! Золотая раздача, скачанное не засчитывается.
Торрент: Зарегистрирован [2016-03-20 09:26] · скачан: 139 раз
Статус: √ проверено
Размер: 7.29 GB
Как cкачать? Как скачать Бёрдмэн через торрент | qTorrent

% Раздел Тема Автор DL S | L
Фильмы [HD 720p, 1080p] (Хороший звук DUB, MVO) [ 21.3 GB ] Бёрдмэн / Birdman: Or [2014 BDRip 1080p] Dub + DVO + 3xAVO + MVO + Original + Sub Seedtank Скачать
1 | 0

28-11-2019 20:33  

Отключить всю рекламу на сайте

04-03-2017 18:41 Бёрдмэн Скачать торрент  

Раздача то есть?pb.wtf



    Дорогой пользователь! Огромная просьба, поблагодарите релизера, оцените раздачу и оставьте свои комментарий, если Вы скачали Бёрдмэн через торрент бесплатно! Внесите свою лепту в развитие PiratBit!
    Комментировать посты могут только пользователи прошедшие не сложную регистрацию
    Показать сообщения:    

    Бёрдмэн через торрент
    Скачать бесплатно Бёрдмэн
    Бёрдмэн скачать торрент
    Бёрдмэн смотреть онлайн
    Cкачать фильм Бёрдмэн бесплатно
    Бёрдмэн скачать торрент в хорошем качестве
    Бёрдмэн смотреть онлайн бесплатно в хорошем качестве


    Вы не можете начинать темы
    Вы не можете отвечать на сообщения
    Вы не можете редактировать свои сообщения
    Вы не можете удалять свои сообщения
    Вы не можете голосовать в опросах
    Вы не можете прикреплять файлы к сообщениям
    Вы можете скачивать файлы