Ссылка на приватное зеркало всего за 1$. Внимание количество ограничено!!!

OK

1+1

iTunes

мы

OK

1

WEB-DLRip

Джокер

Пифагор

Ведьмак / The Witcher сериал

Лицензия

ПШазам

ОК

Оно 2

iTunes

30
pack

Вам бонус

ВАЖНО

!!Акция!!

Alien_RageХит недели

RePack

Resident Evil 21

ИГРА 18+

pack

RePack

jed

RePack

fifa19

RePack

Assassins Creed: Odyssey

RePack

NEED FOR SPEED™ PAYBACK

4 сезон

9 сезон

Бесстыжие 9 сезон

Все сериалы

все сериалы на PB.wtf

RePack

FAR CRY 5
  

Спиди Гонщик / Speed Racer (Лилли Вачовски , Лана Вачовски ) [2008, семейный, спорт, боевик, BDRip 720p, 60fps, Dub, Original] от R.G. HD-Films pb.wtf

Спиди Гонщик через торрент pb.wtf

Качают: 1 [ 0 KB/s ]
Размер: 9.1 GB | Добавлен: 3 года 10 мес. назад | Торрент скачан:51 раз
Скачать  

20-03-2016 17:15 Спиди Гонщик Скачать торрент  

Спиди Гонщик / Speed Racer

Год выпуска: 2008
Страна: США, Австралия, Германия
Жанр: семейный, спорт, боевик
Продолжительность: 02:15:00
Перевод: Дубляж, Оригинал
Субтитры: русские (Полные), английские (Полные)
Режиссер: Лилли Вачовски , Лана Вачовски
В ролях: Эмиль Хирш (Speed), Кристина Риччи (Trixie), Джон Гудман (Pops), Сьюзен Сарандон (Mom), Пол Литовски (Spritle Racer), Скотт Портер (Rex Racer), Мэттью Фокс (Racer X), Кик Гарри (Sparky), Рэйн (Taejo Togokahn), Нань Юй (Horuko Togokahn), Кристиан Оливер (Snake Oiler), Найо Уоллес (Minx)
Описание:
Юный автогонщик Спиди стремится обрести славу, как на самом треке, так и за его пределами, на своем подобном молнии автомобиле «Мак-5».
Рейтинг:

MPAA: PG - Рекомендуется присутствие родителей
Качество: BDRip 720p 60fps
Формат: MKV
Видео: AVC, 1280x544 (2.35:1), 7818 kbps, 60 fps, 0,187 bpp
Аудио 1: русский / AC3 / 5.1 / 48 kHz / 640 kbps / 16 bit
Аудио 2: украинский / AC3 / 5.1 / 48 kHz / 384 kbps / 16 bit |Дубляж (Отдельно в папке)|
Аудио 3: английский / AC3 / 5.1 / 48 kHz / 640 kbps / 16 bit |Оригинал(Отдельно в папке)|
Навигация по главам: есть

General
Unique ID : 240033964431800035950627607614590877240 (0xB494DC27728402E09198850E32FCFE38)
Complete name : D:\Спиди гонщик BDRip 720p 60fps R.G. HD-Films\Спиди гонщик.mkv
Format : Matroska
Format version : Version 4 / Version 2
File size : 8.14 GiB
Duration : 2h 15mn
Overall bit rate mode : Variable
Overall bit rate : 8 630 Kbps
Movie name : Tiberiumsun69
Encoded date : UTC 2016-03-20 19:38:54
Writing application : mkvmerge v8.3.0 ('Over the Horizon') 64bit
Writing library : libebml v1.3.1 + libmatroska v1.4.2
DURATION : 02:15:00.160000000
NUMBER_OF_FRAMES : 253130
NUMBER_OF_BYTES : 648012800
_STATISTICS_WRITING_APP : mkvmerge v8.3.0 ('Over the Horizon') 64bit
_STATISTICS_WRITING_DATE_UTC : 2016-03-20 19:38:54
_STATISTICS_TAGS : BPS DURATION NUMBER_OF_FRAMES NUMBER_OF_BYTES
Attachment : Yes

Video
ID : 1
Format : AVC
Format/Info : Advanced Video Codec
Format profile : High@L4.1
Format settings, CABAC : Yes
Format settings, ReFrames : 3 frames
Format settings, GOP : M=3, N=60
Codec ID : V_MPEG4/ISO/AVC
Duration : 2h 15mn
Bit rate mode : Variable
Bit rate : 7 818 Kbps
Maximum bit rate : 8 000 Kbps
Width : 1 280 pixels
Height : 544 pixels
Display aspect ratio : 2.35:1
Frame rate : 60.000 fps
Standard : NTSC
Color space : YUV
Chroma subsampling : 4:2:0
Bit depth : 8 bits
Scan type : Progressive
Bits/(Pixel*Frame) : 0.187
Stream size : 7.37 GiB (91%)
Title : Tiberiumsun69
Language : English
Default : Yes
Forced : No
Color primaries : BT.601-6 525, BT.1358 525, BT.1700 NTSC, SMPTE 170M
Transfer characteristics : BT.601-6 525, BT.601-6 625, BT.1358 525, BT.1358 625, BT.1700 NTSC, SMPTE 170M
Matrix coefficients : BT.601-6 525, BT.1358 525, BT.1700 NTSC, SMPTE 170M

Audio
ID : 2
Format : AC-3
Format/Info : Audio Coding 3
Mode extension : CM (complete main)
Codec ID : A_AC3
Duration : 2h 15mn
Bit rate mode : Constant
Bit rate : 640 Kbps
Channel(s) : 6 channels
Channel positions : Front: L C R, Side: L R, LFE
Sampling rate : 48.0 KHz
Bit depth : 16 bits
Compression mode : Lossy
Stream size : 618 MiB (7%)
Title : Дубляж
Language : Russian
Default : Yes
Forced : No

Text #1
ID : 3
Format : UTF-8
Codec ID : S_TEXT/UTF8
Codec ID/Info : UTF-8 Plain Text
Title : Полные
Language : Russian
Default : No
Forced : No

Text #2
ID : 4
Format : UTF-8
Codec ID : S_TEXT/UTF8
Codec ID/Info : UTF-8 Plain Text
Title : Полные
Language : English
Default : No
Forced : No

Menu
00:00:00.000 : :Chapter 1
00:04:24.180 : :Chapter 2
00:09:14.887 : :Chapter 3
00:15:25.257 : :Chapter 4
00:18:20.182 : :Chapter 5
00:23:12.015 : :Chapter 6
00:28:04.516 : :Chapter 7
00:32:17.268 : :Chapter 8
00:36:18.593 : :Chapter 9
00:39:51.222 : :Chapter 10
00:44:40.803 : :Chapter 11
00:48:55.098 : :Chapter 12
00:52:42.576 : :Chapter 13
00:57:22.355 : :Chapter 14
01:01:10.333 : :Chapter 15
01:04:32.118 : :Chapter 16
01:10:35.648 : :Chapter 17
01:14:38.515 : :Chapter 18
01:18:18.110 : :Chapter 19
01:22:58.223 : :Chapter 20
01:26:39.235 : :Chapter 21
01:30:15.743 : :Chapter 22
01:33:39.530 : :Chapter 23
01:39:09.860 : :Chapter 24
01:45:10.929 : :Chapter 25
01:51:08.495 : :Chapter 26
01:55:01.936 : :Chapter 27
01:59:13.980 : :Chapter 28
02:03:36.742 : :Chapter 29
02:05:16.550 : :Chapter 30
02:15:00.008 : :Chapter 31
Просьба к переливающим на другие сайты, в оформлении указывайте пожалуйста авторство группы Авторская группа в ВК
pb.wtf



Скачать Спиди Гонщик через торрент http://i74.fastpic.ru/big/2016/0320/4b/6f1099bb6c6347ccac3b03722d3b8f4b.png Скачать фильм Спиди Гонщик через торрент бесплантно в хорошем качестве Описание: Юный автогонщик Спиди стремится обрести славу, как на самом треке, так и за его пределами, на своем подобном молнии автомобиле ... 10 10 2
Info! Золотая раздача, скачанное не засчитывается.
Торрент: Зарегистрирован [2016-03-20 17:15] · скачан: 51 раз
Статус: √ проверено
Размер: 9.1 GB
Как cкачать? Как скачать Спиди Гонщик через торрент | qTorrent

% Раздел Тема Автор DL S | L
Фильмы (BDRip, HDrip-AVC) (48-60 fps) [ 4.93 GB ] Спиди Гонщик / Speed Racer [2008 BDRip-AVC 60fps Dub Original] от R.G. HD-Films Tiberiumsun69 Скачать
4 | 1
Фильмы (HD 720p, 1080p) (48-60 fps) [ 14.63 GB ] Спиди Гонщик / Speed Racer [2008 BDRip 1080p 60fps Dub Original] от R.G. HD-Films Tiberiumsun69 Скачать
4 | 0


Последний раз редактировалось: Tiberiumsun69 (2018-02-07 07:28), всего редактировалось 2 раз(а)

28-11-2019 20:33  

Отключить всю рекламу на сайте

20-03-2016 17:15 Спиди Гонщик Скачать торрент  

Всем приятного просмотра.)pb.wtf



    Дорогой пользователь! Огромная просьба, поблагодарите релизера, оцените раздачу и оставьте свои комментарий, если Вы скачали Спиди Гонщик через торрент бесплатно! Внесите свою лепту в развитие PiratBit!
    Комментировать посты могут только пользователи прошедшие не сложную регистрацию
    Показать сообщения:    

    Спиди Гонщик через торрент
    Скачать бесплатно Спиди Гонщик
    Спиди Гонщик скачать торрент
    Спиди Гонщик смотреть онлайн
    Cкачать фильм Спиди Гонщик бесплатно
    Спиди Гонщик скачать торрент в хорошем качестве
    Спиди Гонщик смотреть онлайн бесплатно в хорошем качестве


    Вы не можете начинать темы
    Вы не можете отвечать на сообщения
    Вы не можете редактировать свои сообщения
    Вы не можете удалять свои сообщения
    Вы не можете голосовать в опросах
    Вы не можете прикреплять файлы к сообщениям
    Вы можете скачивать файлы