Ссылка на приватное зеркало нашего сайта всего за 1$. Внимание количество ограничено!!!

2 сезон

iTunes

1 сезон

1

iTunes

iTunes

iTunes

1 сезон

RePack

30

ИГРА 18+

pack

ВАЖНО

!!Акция!!

Alien_RageХит недели

RePack

MK11
pack

Забери бонус

RePack

jed

!!Акция!!

Alien_Rage

RePack

fifa19

RePack

Assassins Creed: Odyssey

RePack

NEED FOR SPEED™ PAYBACK

4 сезон

9 сезон

Бесстыжие 9 сезон

Все сериалы

все сериалы на PB.wtf

RePack

FAR CRY 5
  

Ледниковый Период: Погоня за яйцами / Ice Age: The Great Egg-Scapade (Рикардо Кертис) [2016, мультфильм, WEB-DLRip, Дубляж] iTunes pb.wtf

Ледниковый Период: Погоня за яйцами через торрент pb.wtf

Размер: 1.36 GB | Добавлен: 4 года 7 мес. назад | Торрент скачан:1389 раз
Скачать  

20-03-2016 19:30 Ледниковый Период: Погоня за яйцами Скачать торрент  


Ледниковый Период: Погоня за яйцами / Ice Age: The Great Egg-Scapade


ИНФОРМАЦИЯ:
Год выпуска:2016
Страна: США
Жанр: мультфильм
Продолжительность: 01:13:49
Перевод: Дубляж - [Лицензия / iTunes]
Режиссер: Рикардо Кертис

В Ролях:


Блейк Андерсон (Clint), Лили Эстефан (Gladys Glypto), Сет Грин (Squint), Габриэль Иглесиас (Cholly Bear), Дэнис Лири (Diego), Джон Легуизамо (Sid), Джош Пек (Eddie), Куин Латифа (Ellie), Рэй Романо (Manny), Шонн Уильям Скотт (Crash), Райан Типл (дополнительные голоса, озвучка), Венди Уильямс

Описание:
Скрэт, Мэнни, Сид, Диего и другие доисторические герои Ледникового Периода в совершенно новом уморительном анимационном приключении! Новый бизнес Сида по высиживанию яиц успешно развивается, но когда подлый кролик –пират Сквинт крадет яйца, Мэнни, Диего и остальные отправляются в бесстрашную спасательную операцию , которой суждено стать первой в истории погоней за яйцами.

  • Мировая премьера:20 марта 2016

    ТЕХ.ДАННЫЕ:
    Качество: WEB-DLRip
    Формат: AVI
    Видео: XviD, 720x400 (16:9), 1945 kbps, 23,976 fps, 0,282 bpp
    Аудио №1: AC3 / 5.1 / 48 kHz / 384 kbps / RUS
    Аудио №2: AC3 / 2.0 / 48 kHz / 192 kbps / ENG


    General
    Complete name : D:\Торенты\P0G0Hya.3a.Jajtzamy.2016.D.WEB-DLRip.avi
    Format : AVI
    Format/Info : Audio Video Interleave
    File size : 1.36 GiB
    Duration : 1h 13mn
    Overall bit rate : 2 637 Kbps
    Writing application : VirtualDubMod 1.5.10.3 | www.virtualdub-fr.org || (build 2550/release)
    Writing library : VirtualDubMod build 2550/release

    Video
    ID : 0
    Format : MPEG-4 Visual
    Format profile : Advanced Simple@L5
    Format settings, BVOP : 2
    Format settings, QPel : No
    Format settings, GMC : No warppoints
    Format settings, Matrix : Default (MPEG)
    Codec ID : XVID
    Codec ID/Hint : XviD
    Duration : 1h 13mn
    Bit rate : 1 946 Kbps
    Width : 720 pixels
    Height : 400 pixels
    Display aspect ratio : 16:9
    Frame rate : 23.976 fps
    Color space : YUV
    Chroma subsampling : 4:2:0
    Bit depth : 8 bits
    Scan type : Progressive
    Compression mode : Lossy
    Bits/(Pixel*Frame) : 0.282
    Stream size : 1.00 GiB (74%)
    Writing library : XviD 1.2.1 (UTC 2008-12-04)

    Audio #1
    ID : 1
    Format : AC-3
    Format/Info : Audio Coding 3
    Mode extension : CM (complete main)
    Codec ID : 2000
    Duration : 1h 12mn
    Bit rate mode : Constant
    Bit rate : 384 Kbps
    Channel(s) : 6 channels
    Channel positions : Front: L C R, Side: L R, LFE
    Sampling rate : 48.0 KHz
    Bit depth : 16 bits
    Compression mode : Lossy
    Stream size : 199 MiB (14%)
    Alignment : Split accross interleaves

    Audio #2
    ID : 2
    Format : AC-3
    Format/Info : Audio Coding 3
    Mode extension : CM (complete main)
    Codec ID : 2000
    Duration : 1h 12mn
    Bit rate mode : Constant
    Bit rate : 192 Kbps
    Channel(s) : 2 channels
    Channel positions : Front: L R
    Sampling rate : 48.0 KHz
    Bit depth : 16 bits
    Compression mode : Lossy
    Stream size : 99.5 MiB (7%)
    Alignment : Split accross interleaves
    Скриншоты:

    © Оформление by .::Ворон::.
    pb.wtf



  • Скачать Ледниковый Период: Погоня за яйцами через торрент http://pic.kartinco.top/images/6/ordi9.jpg Скачать фильм Ледниковый Период: Погоня за яйцами через торрент бесплантно в хорошем качестве Описание: Скрэт, Мэнни, Сид, Диего и другие доисторические герои Ледникового Периода в совершенно новом уморительном анимационном ... 9.3 10 41
    Info! Золотая раздача, скачанное не засчитывается.
    Торрент: Зарегистрирован [2016-03-20 19:30] · скачан: 1 389 раз
    Статус: √ проверено
    Размер: 1.36 GB
    Как cкачать? Как скачать Ледниковый Период: Погоня за яйцами через торрент | qTorrent

    % Раздел Тема Автор DL S | L
    Зарубежные Мультфильмы (WEB-DL 720p, 1080p) [ 2.19 GB ] Ледниковый Период: Погоня за яйцами / Ice Age: The Great Egg-Scapade [2016 мультфильм WEB-DL 720p ] Ворон Скачать
    1 | 0
    Видео (iPhone, iPod Touch) [ 664 MB ] Ледниковый Период: Погоня за яйцами / Ice Age: The Great Egg-Scapade [2016 мультфильм WEB-DLRip 720p + Оригинал] makarevich Скачать
    1 | 0
    Иностранные мультфильмы [ 1.46 GB ] Ледниковый Период: Погоня за яйцами / Ice Age: The Great Egg-Scapade [2016 мультфильм WEB DLRip-AVC] $-DRON-$ Скачать
    1 | 0
    Зарубежные Мультфильмы (WEB-DL 720p, 1080p) [ 2.7 GB ] Ледниковый Период: Погоня за яйцами / Ice Age: The Great Egg-Scapade [2016 мультфильм WEB-DL 1080p ] GEKADOL Скачать
    2 | 0

    28-11-2019 20:33  

    Отключить всю рекламу на сайте

    21-03-2016 02:20 Ледниковый Период: Погоня за яйцами Скачать торрент  

    КЕК, вчера премьера только была pb.wtf



    21-03-2016 08:04 Ледниковый Период: Погоня за яйцами Скачать торрент  

    Очень оперативное пиратство. 1 день, вот это я понимаю уровень.pb.wtf



    21-03-2016 15:41 Ледниковый Период: Погоня за яйцами Скачать торрент  

    Все же уже в курсе, что там 20 минут мультика, и час всяких трейлеров и документалок))
    Мне сразу странным показался такой большой хронометраж, а оно вот что))pb.wtf



    21-03-2016 16:08 Ледниковый Период: Погоня за яйцами Скачать торрент  

    Это официальный релиз!!!
    00:00:00-00:24:32 – короткометражка «Ледниковый Период: Погоня за яйцами»
    00:24:32-01:04:47 - официальные миксы из предыдущих серий, в основном про Белку
    01:04:47-01:13:49 - "фильм о фильме", как снимали м/ф и рисовали персонажей.
    pb.wtf



      Дорогой пользователь! Огромная просьба, поблагодарите релизера, оцените раздачу и оставьте свои комментарий, если Вы скачали Ледниковый Период: Погоня за яйцами через торрент бесплатно! Внесите свою лепту в развитие PiratBit!
      Комментировать посты могут только пользователи прошедшие не сложную регистрацию
      Показать сообщения:    

      Ледниковый Период: Погоня за яйцами через торрент
      Скачать бесплатно Ледниковый Период: Погоня за яйцами
      Ледниковый Период: Погоня за яйцами скачать торрент
      Ледниковый Период: Погоня за яйцами смотреть онлайн
      Cкачать фильм Ледниковый Период: Погоня за яйцами бесплатно
      Ледниковый Период: Погоня за яйцами скачать торрент в хорошем качестве
      Ледниковый Период: Погоня за яйцами смотреть онлайн бесплатно в хорошем качестве


      Вы не можете начинать темы
      Вы не можете отвечать на сообщения
      Вы не можете редактировать свои сообщения
      Вы не можете удалять свои сообщения
      Вы не можете голосовать в опросах
      Вы не можете прикреплять файлы к сообщениям
      Вы можете скачивать файлы