новый адрес пиратбит piratbit
Мега распродажа FORZA HORIZON 4 ULTIMATE+ВСЕ DLC+ОНЛАЙН всего за 499р. 349 руб. (супер цена). Внимание количество ограничено!!!

iTunes

1+1

iTunes

мы

iTunes

1

iTunes

Чернобыль

iTunes

Ральф против интернета

Лицензия

ПШазам

Лицензия

Игра престолов

Лицензия

30
pack

ВАЖНО

!!Акция!!

Alien_RageХит недели

RePack

Resident Evil 21

ИГРА 18+

pack

RePack

Metro:Exodus

!!Акция!!

Alien_Rage

RePack

fifa19

RePack

Assassins Creed: Odyssey

RePack

NEED FOR SPEED™ PAYBACK

3 сезон

9 сезон

Бесстыжие 9 сезон

Все сериалы

все сериалы на PB.wtf

RePack

FAR CRY 5
Ребята, катастрофически не хватает 1900р. для оплаты серверов за Октябрь (всвязи с блокировками трафик упал в 3 раза), 1-2р., выручайте.
  

Rihanna feat. Drake - Work [2015 г., Pop, HDTVRip 1080p] pb.wtf

Rihanna feat. Drake - Work через торрент pb.wtf

Размер: 220 MB | Добавлен: 3 года 7 мес. назад | Торрент скачан:23 раза
Скачать  

20-03-2016 19:32 Rihanna feat. Drake - Work Скачать торрент  

Rihanna feat. Drake - Work
Год выпуска: 2016
Жанр: Pop
Продолжительность: 00:03:42
Качество:HDTVRip 1080p
Формат: MPEG4
Видео кодек: AVC
Аудио кодек:AAC
Видео: MPEG4 AVC, 1920x1080, 23,976 fps, 7970 kbps
Аудио#1: AAC 48,0 kHz, 2 ch, 320 kbps
премьера нового клипа Рианны (Rihanna). Американская певица опубликовала на своем официальном видеоканале ролик к композиции Work, в записи которой принимал участие известный рэпер Дрейк (Drake). Это третья совместная музыкальная работа двух знаменитостей. Ранее музыканты вместе трудились над синглами Take Care и What’s My Name. Съемками занимался канадский режиссер Director X. Действия по версии Director X происходят в модном полулегальном ночном клубе, где посетители устраивают танцы «без цензуры», каждый второй курит косяк, а сексуальная энергия в венах завсегдатаев зашкаливает. Композиция Work является лид-синглом восьмого студийного альбома Рианны Anti, релиз которого состоялся 28 января этого года.
Общее
Полное имя : Rihanna feat. Drake - Work.mp4
Формат : MPEG-4
Профиль формата : Base Media / Version 2
Идентификатор кодека : mp42
Размер файла : 220 Мбайт
Продолжительность : 3 м. 42 с.
Режим общего битрейта : Переменный
Общий поток : 8295 Кбит/сек

Видео
Идентификатор : 1
Формат : AVC
Формат/Информация : Advanced Video Codec
Профиль формата : High@L4.0
Параметр CABAC формата : Да
Параметр ReFrames формата : 8 кадров
Идентификатор кодека : avc1
Идентификатор кодека/Информация : Advanced Video Coding
Продолжительность : 3 м. 42 с.
Продолжительность оригинала : 3 м. 42 с.
Вид битрейта : Переменный
Битрейт : 7970 Кбит/сек
Максимальный битрейт : 40,0 Мбит/сек
Ширина : 1920 пикселей
Высота : 1080 пикселей
Соотношение сторон : 16:9
Режим частоты кадров : Переменный
Частота кадров : 23,976 кадра/сек
Минимальная частота кадров : 23,974 кадра/сек
Максимальная частота кадров : 23,981 кадра/сек
Цветовое пространство : YUV
Субдискретизация насыщенности : 4:2:0
Битовая глубина : 8 бит
Тип развёртки : Прогрессивная
Бит/(Пиксели*Кадры) : 0.160
Размер потока : 212 Мбайт (96%)
Размер потока оригинала : 212 Мбайт (96%)
Язык : English
mdhd_Duration : 222639

Аудио
Идентификатор : 2
Формат : AAC
Формат/Информация : Advanced Audio Codec
Профиль формата : LC
Идентификатор кодека : 40
Продолжительность : 3 м. 42 с.
Продолжительность оригинала : 3 м. 42 с.
Вид битрейта : Переменный
Битрейт : 320 Кбит/сек
Каналы : 2 канала
Расположение каналов : Front: L R
Частота : 48,0 КГц
Метод сжатия : С потерями
Размер потока : 8,50 Мбайт (4%)
Размер потока оригинала : 8,50 Мбайт (4%)
Язык : English
mdhd_Duration : 222719
pb.wtf



Скачать Rihanna feat. Drake - Work через торрент http://s017.radikal.ru/i418/1603/85/55903a4ebf4f.jpg Скачать фильм Rihanna feat. Drake - Work [2015 г., Pop, HDTVRip 1080p]через торрент бесплантно в хорошем качестве Год выпуска: 2016Жанр: PopПродолжительность: ... 7 10 6
Торрент: Зарегистрирован [2016-03-20 19:32] · скачан: 23 раз
Статус: √ проверено
Размер: 220 MB
Как cкачать? Как скачать Rihanna feat. Drake - Work через торрент | qTorrent


>> Регистрируемся здесь <<






Отзывы и комментарии о схеме читаем и пишем здесь: ---> Отзывы и комментарии о схеме

Новые благодарочки в телеграм довольных пользователей:
скриншот   скриншот   скриншот   скриншот   скриншот
    Дорогой пользователь! Огромная просьба, поблагодарите релизера, оцените раздачу и оставьте свои комментарий, если Вы скачали Rihanna feat. Drake - Work через торрент бесплатно! Внесите свою лепту в развитие PiratBit!
    Комментировать посты могут только пользователи прошедшие не сложную регистрацию
    Показать сообщения:    

    Rihanna feat. Drake - Work через торрент
    Скачать бесплатно Rihanna feat. Drake - Work
    Rihanna feat. Drake - Work скачать торрент
    Rihanna feat. Drake - Work смотреть онлайн
    Cкачать фильм Rihanna feat. Drake - Work бесплатно
    Rihanna feat. Drake - Work скачать торрент в хорошем качестве
    Rihanna feat. Drake - Work смотреть онлайн бесплатно в хорошем качестве


    Вы не можете начинать темы
    Вы не можете отвечать на сообщения
    Вы не можете редактировать свои сообщения
    Вы не можете удалять свои сообщения
    Вы не можете голосовать в опросах
    Вы не можете прикреплять файлы к сообщениям
    Вы можете скачивать файлы