новый адрес
Ссылка на приватное зеркало всего за 1$. Внимание количество ограничено!!!

iTunes

1+1

iTunes

мы

iTunes

1

iTunes

Чернобыль

iTunes

Ральф против интернета

Лицензия

ПШазам

Лицензия

Оно 2

Лицензия

30
pack

Вам бонус

ВАЖНО

!!Акция!!

Alien_RageХит недели

RePack

Resident Evil 21

ИГРА 18+

pack

RePack

jed

!!Акция!!

Alien_Rage

RePack

fifa19

RePack

Assassins Creed: Odyssey

RePack

NEED FOR SPEED™ PAYBACK

3 сезон

9 сезон

Бесстыжие 9 сезон

Все сериалы

все сериалы на PB.wtf

RePack

FAR CRY 5
Ребята, катастрофически не хватает 1900р. для оплаты серверов за Октябрь (всвязи с блокировками трафик упал в 3 раза), 1-2р., выручайте.
  

Канал / The Channel (Том Льюис) [2016, ужасы, триллер, драма, WEB-DLRip, Любительский (двухголосый) Релиз без рекламы! pb.wtf

Канал через торрент pb.wtf

Размер: 1.37 GB | Добавлен: 3 года 8 мес. назад | Торрент скачан:118 раз
Скачать  

20-03-2016 19:39 Канал Скачать торрент  


Канал / The Channel
««Evil hides in the periphery»»

ИНФОРМАЦИЯ:
Год выпуска:2016
Страна: США
Жанр: ужасы, триллер, драма
Продолжительность: 01:34:41
Перевод: Любительский (двухголосый)
Режиссер: Том Льюис

В Ролях:


Kristen StephensonPino (Cassie), Ник Кларк (Fr. McCready), Эндрю Олсон (Justin), Jared Boghosian (Seth), Кэрол Энн Уоттс (Silvia), Коррин Эванс (Trish), Майрон Нэтвик (Fr. Jenkins), Ларрс Джексон (Dr. Switzer), Донна Руш (Maggie), Кимберли Спак (Alison), Мэтт Вебер (Phil), Кэти Сью Холторф (Charlie)

Описание:
Пережив предсмертный опыт , подросток обнаруживает, что она стала каналом для входа злого духа в ее жизни .


ТЕХ.ДАННЫЕ:
Качество: WEB-DLRip
Формат: AVI
Видео: XviD, 720x400 (16:9), 1785 kbps, 23,976 fps, 0,259 bpp
Аудио: AC3 / 2.0 / 48 kHz / 192 kbps / 16 bit


General
Complete name : D:\Торенты\Kanal.2016.L2.WEB-DLRip.avi
Format : AVI
Format/Info : Audio Video Interleave
File size : 1.37 GiB
Duration : 1h 34mn
Overall bit rate : 2 068 Kbps
Writing application : VirtualDubMod 1.5.10.3 | www.virtualdub-fr.org || (build 2550/release)
Writing library : VirtualDubMod build 2550/release

Video
ID : 0
Format : MPEG-4 Visual
Format profile : Advanced Simple@L5
Format settings, BVOP : 2
Format settings, QPel : No
Format settings, GMC : No warppoints
Format settings, Matrix : Default (H.263)
Muxing mode : Packed bitstream
Codec ID : XVID
Codec ID/Hint : XviD
Duration : 1h 34mn
Bit rate : 1 785 Kbps
Width : 720 pixels
Height : 400 pixels
Display aspect ratio : 16:9
Frame rate : 23.976 fps
Color space : YUV
Chroma subsampling : 4:2:0
Bit depth : 8 bits
Scan type : Progressive
Compression mode : Lossy
Bits/(Pixel*Frame) : 0.259
Stream size : 1.18 GiB (86%)
Writing library : XviD 66

Audio
ID : 1
Format : AC-3
Format/Info : Audio Coding 3
Mode extension : CM (complete main)
Codec ID : 2000
Duration : 1h 34mn
Bit rate mode : Constant
Bit rate : 192 Kbps
Channel(s) : 2 channels
Channel positions : Front: L R
Sampling rate : 48.0 KHz
Bit depth : 16 bits
Compression mode : Lossy
Stream size : 130 MiB (9%)
Alignment : Split accross interleaves
Скриншоты:

© Оформление by .::Ворон::.
pb.wtf



Скачать Канал через торрент http://pic.kartinco.top/images/6/ordi9.jpg Скачать фильм Канал через торрент бесплантно в хорошем качестве Описание: Пережив предсмертный опыт , подросток обнаруживает, что она стала каналом для входа злого духа в ее жизни . ТЕХ.ДАННЫЕ: ... 10 10 4
Info! Серебряная раздача, засчитывается только 50% скачанного.
Торрент: Зарегистрирован [2016-03-20 19:39] · скачан: 118 раз
Статус: T временная
Размер: 1.37 GB
Как cкачать? Как скачать Канал через торрент | qTorrent


>> Регистрируемся здесь <<






Отзывы и комментарии о схеме читаем и пишем здесь: ---> Отзывы и комментарии о схеме

Новые благодарочки в телеграм довольных пользователей:
скриншот   скриншот   скриншот   скриншот   скриншот

22-03-2016 16:18 Канал Скачать торрент  

Читаю описание и клинит мозг.pb.wtf



24-03-2016 09:01 Канал Скачать торрент  

v-manin писал(а):

Читаю описание и клинит мозг.

да тут всё криво, начиная с имён актеров.. то на русском , то на английскомpb.wtf



    Дорогой пользователь! Огромная просьба, поблагодарите релизера, оцените раздачу и оставьте свои комментарий, если Вы скачали Канал через торрент бесплатно! Внесите свою лепту в развитие PiratBit!
    Комментировать посты могут только пользователи прошедшие не сложную регистрацию
    Показать сообщения:    

    Канал через торрент
    Скачать бесплатно Канал
    Канал скачать торрент
    Канал смотреть онлайн
    Cкачать фильм Канал бесплатно
    Канал скачать торрент в хорошем качестве
    Канал смотреть онлайн бесплатно в хорошем качестве


    Вы не можете начинать темы
    Вы не можете отвечать на сообщения
    Вы не можете редактировать свои сообщения
    Вы не можете удалять свои сообщения
    Вы не можете голосовать в опросах
    Вы не можете прикреплять файлы к сообщениям
    Вы можете скачивать файлы