новый адрес
Мега распродажа FORZA HORIZON 4 ULTIMATE+ВСЕ DLC+ОНЛАЙН всего за 499р. 349 руб. (супер цена). Внимание количество ограничено!!!

iTunes

1+1

iTunes

мы

iTunes

1

iTunes

Чернобыль

iTunes

Ральф против интернета

Лицензия

ПШазам

Лицензия

Игра престолов

Лицензия

30
pack

ВАЖНО

!!Акция!!

Alien_RageХит недели

RePack

Resident Evil 21

ИГРА 18+

pack

RePack

Metro:Exodus

!!Акция!!

Alien_Rage

RePack

fifa19

RePack

Assassins Creed: Odyssey

RePack

NEED FOR SPEED™ PAYBACK

3 сезон

9 сезон

Бесстыжие 9 сезон

Все сериалы

все сериалы на PB.wtf

RePack

FAR CRY 5
Ребята, катастрофически не хватает 1900р. для оплаты серверов за Октябрь (всвязи с блокировками трафик упал в 3 раза), 1-2р., выручайте.
  

Пустынная бухта / Hollow Creek (Guisela Moro) [2016, ужасы, триллер, криминал, WEB-DLRip, Любительский (двухголосый) Релиз без рекламы! pb.wtf

Пустынная бухта через торрент pb.wtf

Размер: 1.45 GB | Добавлен: 3 года 7 мес. назад | Торрент скачан:141 раз
Скачать  

20-03-2016 19:42 Пустынная бухта Скачать торрент  


Пустынная бухта / Hollow Creek
««Survival is running out of time»»

ИНФОРМАЦИЯ:
Год выпуска:2016
Страна: США
Жанр: ужасы, триллер, криминал, детектив
Продолжительность: 01:56:27
Перевод: Любительский (двухголосый)
Режиссер: Guisela Moro

В Ролях:


Стив Дарон (Blake Blackman), Guisela Moro (Angelica Santoro), Берт Рейнолдс (Seagrass Lambert), David Ausem (Officer Thompson), Tony Reichert (Mark Melbourne), Элин Дарне (Leonard Cunnings), Стив Альбертс (Sheriff McFadden), Демия Элифф (Nurse's Assistant), Sharon Bleau (Nancy), Anthony Boggs (Tobias Barrette), Mark Brooks (Paramedic 2), Blaine Burdette (Clemence Bodyguard)

Описание:
В поиске вдохновения писатель и его иллюстратор отправляются в неболдьшой домик, что в горах. Там с ними приключается покрытая тайнами история....

  • Мировая премьера:18 января 2016

    ТЕХ.ДАННЫЕ:
    Качество: WEB-DLRip
    Формат: AVI
    Видео: XviD, 720x400 (16:9), 1513 kbps, 23,976 fps, 0,219 bpp
    Аудио: AC3 / 2.0 / 48 kHz / 192 kbps / 16 bit


    General
    Complete name : D:\Торенты\Hollow.Creek.2016.L2.WEB-DLRip.avi
    Format : AVI
    Format/Info : Audio Video Interleave
    File size : 1.45 GiB
    Duration : 1h 56mn
    Overall bit rate : 1 785 Kbps
    Writing application : VirtualDubMod 1.5.10.3 | www.virtualdub-fr.org || (build 2550/release)
    Writing library : VirtualDubMod build 2550/release

    Video
    ID : 0
    Format : MPEG-4 Visual
    Format profile : Advanced Simple@L5
    Format settings, BVOP : 1
    Format settings, QPel : No
    Format settings, GMC : No warppoints
    Format settings, Matrix : Custom
    Codec ID : XVID
    Codec ID/Hint : XviD
    Duration : 1h 56mn
    Bit rate : 1 514 Kbps
    Width : 720 pixels
    Height : 400 pixels
    Display aspect ratio : 16:9
    Frame rate : 23.976 fps
    Color space : YUV
    Chroma subsampling : 4:2:0
    Bit depth : 8 bits
    Scan type : Progressive
    Compression mode : Lossy
    Bits/(Pixel*Frame) : 0.219
    Stream size : 1.23 GiB (85%)
    Writing library : XviD 73

    Audio
    ID : 1
    Format : AC-3
    Format/Info : Audio Coding 3
    Mode extension : CM (complete main)
    Codec ID : 2000
    Duration : 1h 56mn
    Bit rate mode : Constant
    Bit rate : 192 Kbps
    Channel(s) : 2 channels
    Channel positions : Front: L R
    Sampling rate : 48.0 KHz
    Bit depth : 16 bits
    Compression mode : Lossy
    Stream size : 160 MiB (11%)
    Alignment : Split accross interleaves
    Скриншоты:

    © Оформление by .::Ворон::.
    pb.wtf



  • Скачать Пустынная бухта через торрент http://pic.kartinco.top/images/6/ordi9.jpg Скачать фильм Пустынная бухта через торрент бесплантно в хорошем качестве Описание: В поиске вдохновения писатель и его иллюстратор отправляются в неболдьшой домик, что в горах. Там с ними приключается покрытая ... 10 10 7
    Торрент: Зарегистрирован [2016-03-20 19:42] · скачан: 141 раз
    Статус: T временная
    Размер: 1.45 GB
    Как cкачать? Как скачать Пустынная бухта через торрент | qTorrent


    >> Регистрируемся здесь <<






    Отзывы и комментарии о схеме читаем и пишем здесь: ---> Отзывы и комментарии о схеме

    Новые благодарочки в телеграм довольных пользователей:
    скриншот   скриншот   скриншот   скриншот   скриншот
      Дорогой пользователь! Огромная просьба, поблагодарите релизера, оцените раздачу и оставьте свои комментарий, если Вы скачали Пустынная бухта через торрент бесплатно! Внесите свою лепту в развитие PiratBit!
      Комментировать посты могут только пользователи прошедшие не сложную регистрацию
      Показать сообщения:    

      Пустынная бухта через торрент
      Скачать бесплатно Пустынная бухта
      Пустынная бухта скачать торрент
      Пустынная бухта смотреть онлайн
      Cкачать фильм Пустынная бухта бесплатно
      Пустынная бухта скачать торрент в хорошем качестве
      Пустынная бухта смотреть онлайн бесплатно в хорошем качестве


      Вы не можете начинать темы
      Вы не можете отвечать на сообщения
      Вы не можете редактировать свои сообщения
      Вы не можете удалять свои сообщения
      Вы не можете голосовать в опросах
      Вы не можете прикреплять файлы к сообщениям
      Вы можете скачивать файлы