Ссылка на приватное зеркало нашего сайта всего за 1$. Внимание количество ограничено!!!

2 сезон

iTunes

1 сезон

1

2 сезон

2 сезон

iTunes

1 сезон

RePack

30

Ultimate

ВАЖНО

ИГРА 18+

pack

RePack

MK11
pack

Забери бонус

RePack

jed

!!Акция!!

Alien_Rage

RePack

fifa19

RePack

Assassins Creed: Odyssey

RePack

NEED FOR SPEED™ PAYBACK

4 сезон

9 сезон

Бесстыжие 9 сезон

Все сериалы

все сериалы на PB.wtf

RePack

FAR CRY 5
  

СталкХер / StalkHer (Джон Джэррэт, Карин Фэйрфакс) [2015, триллер, мелодрама, комедия, WEB-DLRip, Любительский (двухголосый) Релиз без рекламы! pb.wtf

СталкХер через торрент pb.wtf

Размер: 1.4 GB | Добавлен: 4 года 8 мес. назад | Торрент скачан:85 раз
Скачать  

20-03-2016 19:45 СталкХер Скачать торрент  


СталкХер / StalkHer
««He chased her... until... she caught him»»

ИНФОРМАЦИЯ:
Год выпуска:2015
Страна: Австралия
Жанр: триллер, мелодрама, комедия
Продолжительность: 01:29:57
Перевод: Любительский (двухголосый)
Режиссер: Джон Джэррэт, Карин Фэйрфакс

В Ролях:


Джон Джэррэт (Jack), Карин Фэйрфакс (Emily), Алан Финни (Mr. Schiller), Роберт Колеби (Dr. Jacob Weeks), Чарли Джэррэт (Alex), Mykel Nikiforides (Man #1), Ааш Аарон (Man #2), Craig A. Kocinski (Man #3), Paul Hilton (Man #4), Daniel Guerra (Man #5), Дэнни Болдуин (Man #6), Vasily Syrakos (Supermarket Store Clerk)

Описание:
Планы Джека, преследуемого навязчивой идеей, ворваться в дом Эмили и взять её силой, терпят поражение. Придя в себя, он обнаруживает, что исходит кровью, привязанным к стулу в её кухне. Всего за одну ночь у них закручиваются безумные отношения. Но кто из них после этого доживёт до рассвета?

  • Мировая премьера:27 августа 2015

    ТЕХ.ДАННЫЕ:
    Качество: WEB-DLRip
    Формат: AVI
    Видео: XviD, 720x400 (16:9), 1741 kbps, 24 fps, 0,252 bpp
    Аудио №1: AC3 / 2.0 / 48 kHz / 192 kbps / RUS
    Аудио №2: AC3 / 2.0 / 48 kHz / 192 kbps / ENG


    General
    Complete name : D:\Торенты\StalkHer.2015.L2.WEB-DLRip.avi
    Format : AVI
    Format/Info : Audio Video Interleave
    File size : 1.40 GiB
    Duration : 1h 29mn
    Overall bit rate : 2 224 Kbps
    Writing application : VirtualDubMod 1.5.10.3 | www.virtualdub-fr.org || (build 2550/release)
    Writing library : VirtualDubMod build 2550/release

    Video
    ID : 0
    Format : MPEG-4 Visual
    Format profile : Advanced Simple@L5
    Format settings, BVOP : 2
    Format settings, QPel : No
    Format settings, GMC : No warppoints
    Format settings, Matrix : Default (H.263)
    Codec ID : XVID
    Codec ID/Hint : XviD
    Duration : 1h 29mn
    Bit rate : 1 741 Kbps
    Width : 720 pixels
    Height : 400 pixels
    Display aspect ratio : 16:9
    Frame rate : 24.000 fps
    Color space : YUV
    Chroma subsampling : 4:2:0
    Bit depth : 8 bits
    Scan type : Progressive
    Compression mode : Lossy
    Bits/(Pixel*Frame) : 0.252
    Stream size : 1.09 GiB (78%)
    Writing library : XviD 73

    Audio #1
    ID : 1
    Format : AC-3
    Format/Info : Audio Coding 3
    Mode extension : CM (complete main)
    Codec ID : 2000
    Duration : 1h 29mn
    Bit rate mode : Constant
    Bit rate : 192 Kbps
    Channel(s) : 2 channels
    Channel positions : Front: L R
    Sampling rate : 48.0 KHz
    Bit depth : 16 bits
    Compression mode : Lossy
    Stream size : 124 MiB (9%)
    Alignment : Split accross interleaves

    Audio #2
    ID : 2
    Format : AC-3
    Format/Info : Audio Coding 3
    Mode extension : CM (complete main)
    Codec ID : 2000
    Duration : 1h 29mn
    Bit rate mode : Constant
    Bit rate : 192 Kbps
    Channel(s) : 2 channels
    Channel positions : Front: L R
    Sampling rate : 48.0 KHz
    Bit depth : 16 bits
    Compression mode : Lossy
    Stream size : 124 MiB (9%)
    Alignment : Split accross interleaves
    Скриншоты:

    © Оформление by .::Ворон::.
    pb.wtf



  • Скачать СталкХер через торрент http://pic.kartinco.top/images/6/ordi9.jpg Скачать фильм СталкХер через торрент бесплантно в хорошем качестве Описание: Планы Джека, преследуемого навязчивой идеей, ворваться в дом Эмили и взять её силой, терпят поражение. Придя в себя, он ... 8.2 10 5
    Торрент: Зарегистрирован [2016-03-20 19:45] · скачан: 85 раз
    Статус: T временная
    Размер: 1.4 GB
    Как cкачать? Как скачать СталкХер через торрент | qTorrent

    28-11-2019 20:33  

    Отключить всю рекламу на сайте

    20-03-2016 20:25 СталкХер Скачать торрент  

    хотя бы многоголоска будет?pb.wtf



    21-03-2016 03:42 СталкХер Скачать торрент  

    Веселый наверное фильм) Заценим)pb.wtf



    21-03-2016 04:00 СталкХер Скачать торрент  

    Трейлер не впечатлил

    pb.wtf



    21-03-2016 13:52 СталкХер Скачать торрент  

    хрень полнейшая извращенцы чертовы зря время только потратил какой дебил это снял pb.wtf



    21-03-2016 19:09 СталкХер Скачать торрент  

    Кино про садо мазоpb.wtf



      Дорогой пользователь! Огромная просьба, поблагодарите релизера, оцените раздачу и оставьте свои комментарий, если Вы скачали СталкХер через торрент бесплатно! Внесите свою лепту в развитие PiratBit!
      Комментировать посты могут только пользователи прошедшие не сложную регистрацию
      Показать сообщения:    

      СталкХер через торрент
      Скачать бесплатно СталкХер
      СталкХер скачать торрент
      СталкХер смотреть онлайн
      Cкачать фильм СталкХер бесплатно
      СталкХер скачать торрент в хорошем качестве
      СталкХер смотреть онлайн бесплатно в хорошем качестве


      Вы не можете начинать темы
      Вы не можете отвечать на сообщения
      Вы не можете редактировать свои сообщения
      Вы не можете удалять свои сообщения
      Вы не можете голосовать в опросах
      Вы не можете прикреплять файлы к сообщениям
      Вы можете скачивать файлы