Ссылка на приватное зеркало всего за 1$. Внимание количество ограничено!!!

OK

1+1

iTunes

мы

OK

1

WEB-DLRip

Джокер

Пифагор

Ведьмак / The Witcher сериал

iTunes

ПШазам

ОК

Оно 2

iTunes

30
pack

Вам бонус

ВАЖНО

!!Акция!!

Alien_RageХит недели

RePack

Resident Evil 21

ИГРА 18+

pack

RePack

jed

RePack

fifa19

RePack

Assassins Creed: Odyssey

RePack

NEED FOR SPEED™ PAYBACK

4 сезон

9 сезон

Бесстыжие 9 сезон

Все сериалы

все сериалы на PB.wtf

RePack

FAR CRY 5
  

Падение Крэйсов / The Fall of the Krays (Закари Адлер) [2016, криминал, WEB-DLRip, Любительский (двухголосый) Релиз без рекламы! pb.wtf

Падение Крэйсов через торрент pb.wtf

Размер: 1.38 GB | Добавлен: 3 года 10 мес. назад | Торрент скачан:128 раз
Скачать  

20-03-2016 19:49 Падение Крэйсов Скачать торрент  


Падение Крэйсов / The Fall of the Krays


ИНФОРМАЦИЯ:
Год выпуска:2016
Страна: Великобритания
Жанр: криминал
Продолжительность: 01:51:12
Перевод: Любительский (двухголосый)
Режиссер: Закари Адлер

В Ролях:


Адриан Буше (Frank), Кевин Лесли (Reggie Kray), Джордж Уэбстер (The Author), Алекса Булл (Lisa), Саймон Коттон (Ronnie Kray), Пол Блэкуэлл (Photographer), Джош Майерс (Frankie Fraser), Филип Ховард (Harry at the Bar), Йен Кейр Аттард (Jack), Ричард Бэнкс (Club Drinker), Джеймс Вебер-Браун (Leslie), Michael Instone (Angelo)

Описание:
Взгляд близкого друга на историю братьев-близнецов, выросших в неизвестной спецшколе и ставших самыми опасными людьми в Британии, о их подъеме на криминальный олимп и падении...

  • Мировая премьера:1 января 2016

    ТЕХ.ДАННЫЕ:
    Качество: WEB-DLRip
    Формат: AVI
    Видео: XviD, 720x400 (16:9), 1315 kbps, 25 fps, 0,183 bpp
    Аудио №1: AC3 / 2.0 / 48 kHz / 192 kbps / RUS
    Аудио №2: AC3 / 2.0 / 48 kHz / 192 kbps / ENG


    General
    Complete name : D:\Торенты\Padenie krejsov 2016 WEB-DLRip.avi
    Format : AVI
    Format/Info : Audio Video Interleave
    File size : 1.38 GiB
    Duration : 1h 51mn
    Overall bit rate : 1 781 Kbps
    Writing application : VirtualDubMod 1.5.10.3 | www.virtualdub-fr.org || (build 2550/release)
    Writing library : VirtualDubMod build 2550/release

    Video
    ID : 0
    Format : MPEG-4 Visual
    Format profile : Advanced Simple@L5
    Format settings, BVOP : 2
    Format settings, QPel : No
    Format settings, GMC : No warppoints
    Format settings, Matrix : Default (H.263)
    Muxing mode : Packed bitstream
    Codec ID : XVID
    Codec ID/Hint : XviD
    Duration : 1h 51mn
    Bit rate : 1 315 Kbps
    Width : 720 pixels
    Height : 400 pixels
    Display aspect ratio : 16:9
    Frame rate : 25.000 fps
    Color space : YUV
    Chroma subsampling : 4:2:0
    Bit depth : 8 bits
    Scan type : Progressive
    Compression mode : Lossy
    Bits/(Pixel*Frame) : 0.183
    Stream size : 1.02 GiB (74%)
    Writing library : XviD 66

    Audio #1
    ID : 1
    Format : AC-3
    Format/Info : Audio Coding 3
    Mode extension : CM (complete main)
    Codec ID : 2000
    Duration : 1h 51mn
    Bit rate mode : Constant
    Bit rate : 192 Kbps
    Channel(s) : 2 channels
    Channel positions : Front: L R
    Sampling rate : 48.0 KHz
    Bit depth : 16 bits
    Compression mode : Lossy
    Stream size : 153 MiB (11%)
    Alignment : Split accross interleaves

    Audio #2
    ID : 2
    Format : AC-3
    Format/Info : Audio Coding 3
    Mode extension : CM (complete main)
    Codec ID : 2000
    Duration : 1h 51mn
    Bit rate mode : Constant
    Bit rate : 192 Kbps
    Channel(s) : 2 channels
    Channel positions : Front: L R
    Sampling rate : 48.0 KHz
    Bit depth : 16 bits
    Compression mode : Lossy
    Stream size : 153 MiB (11%)
    Alignment : Split accross interleaves
    Скриншоты:

    © Оформление by .::Ворон::.
    pb.wtf



  • Скачать Падение Крэйсов через торрент http://pic.kartinco.top/images/6/ordi9.jpg Скачать фильм Падение Крэйсов через торрент бесплантно в хорошем качестве Описание: Взгляд близкого друга на историю братьев-близнецов, выросших в неизвестной спецшколе и ставших самыми опасными людьми в Британии, ... 8.9 10 8
    Торрент: Зарегистрирован [2016-03-20 19:49] · скачан: 128 раз
    Статус: T временная
    Размер: 1.38 GB
    Как cкачать? Как скачать Падение Крэйсов через торрент | qTorrent

    28-11-2019 20:33  

    Отключить всю рекламу на сайте

    20-03-2016 20:50 Падение Крэйсов Скачать торрент  

    Еще один фильм про Креев что-ли? Первый с Харди в обеих ролях видел недавно, ничего так.pb.wtf



      Дорогой пользователь! Огромная просьба, поблагодарите релизера, оцените раздачу и оставьте свои комментарий, если Вы скачали Падение Крэйсов через торрент бесплатно! Внесите свою лепту в развитие PiratBit!
      Комментировать посты могут только пользователи прошедшие не сложную регистрацию
      Показать сообщения:    

      Падение Крэйсов через торрент
      Скачать бесплатно Падение Крэйсов
      Падение Крэйсов скачать торрент
      Падение Крэйсов смотреть онлайн
      Cкачать фильм Падение Крэйсов бесплатно
      Падение Крэйсов скачать торрент в хорошем качестве
      Падение Крэйсов смотреть онлайн бесплатно в хорошем качестве


      Вы не можете начинать темы
      Вы не можете отвечать на сообщения
      Вы не можете редактировать свои сообщения
      Вы не можете удалять свои сообщения
      Вы не можете голосовать в опросах
      Вы не можете прикреплять файлы к сообщениям
      Вы можете скачивать файлы