2 сезон

iTunes

MVO

1

2 сезон

iTunes

iTunes

1 сезон

RePack

30

Ultimate

ВАЖНО

ИГРА 18+

pack

RePack

MK11
pack

Легкие деньги

RePack

jed

RePack

fifa19

RePack

RDR2

RePack

NEED FOR SPEED™ PAYBACK

4 сезон

9 сезон

Бесстыжие 9 сезон

Все сериалы

все сериалы на PB.wtf

RePack

FAR CRY 5

Anonymous, доброй ночи, мы не успеваем собрать деньги на оплату серверов за декабрь и январь, помогите нам пожалуйста в это трудное время. В качестве благодарности мы отключим Вам всю рекламу на сайте (укажите свой ник в строку Ваше имя)!

×
  
Magnet ссылка

Афера по-американски / American Hustle (Дэвид О. Расселл / David O. Russell) [2013, США, драма, комедия, BDRip-AVC by keeper.52] DUB + Original (eng) + Sub (rus, eng) pb.wtf

Афера по-американски через торрент pb.wtf

Раздают: 1 [ 0 KB/s ]
Размер: 2.62 GB | Добавлен: 4 года 9 мес. назад | Торрент скачан:102 раза
Скачать  

21-03-2016 07:20 Афера по-американски Скачать торрент  

Афера по-американски / American Hustle«Everyone Hustles To Survive»
Страна: США / Annapurna Pictures, Atlas Entertainment

Жанр: драма, комедия
Год выпуска: 2013
Продолжительность: 02:18:04

Перевод: Профессиональный (дублированный)
Cубтитры: русский, английский
Оригинальная аудиодорожка: английский (отдельным файлом)

Режиссер: Дэвид О. Расселл / David O. Russ

В ролях: Кристиан Бэйл, Эми Адамс, Брэдли Купер, Дженнифер Лоуренс, Джереми Реннер, Луис С.К., Алессандро Нивола, Джек Хьюстон, Роберт Де Ниро, Майкл Пенья...

Роли дублировали: Андрей Саминин, Екатерина Брайковская, Дмитрий Сова, Наталья Романько

Описание: В основе сюжета фильма реальная спецоперация, проводимая ФБР в конце 70-х — начале 80-х под кодовым названием Abscam. Она изначально была нацелена на расследование торговли краденым товаром. ФБР собиралось внедрить в преступную среду своих агентов под видом посредников, скупающих краденые шедевры для богатых коллекционеров Ближнего Востока. Впоследствии операция превратилась в изобличение коррупции на разных уровнях.



Качество: BDRip-AVC / BDRemux 1080p
Формат: MKV

Видео: 1056x440 (2.40:1), MPEG-4 AVC Video 1816 Кбит/сек / 23,976 fps / High Profile 4.1 / 0.163 bit/pixel
Аудио 1: 48 kHz, Dolby AC3, 6 ch, 448 kbps, русский
Аудио 2: 48 kHz, Dolby AC3, 6 ch, 448 kbps, английский (отдельным файлом)
Формат субтитров: SoftSub (srt)

Дополнительно: Фильм разбит на главы, как на оригинальном Blu-ray диске.

Раздача от:
Русские субтитры я взял у некоего человека, который матерный язык считает своим родным. Весь мат из сабов удален (заменен на цивилизованные слова), при этом исправлены орфографические и синтаксические ошибки. Особо к тексту не присматривался, поэтому претензии, которые будут высказаны по тексту, относятся не совсем ко мне :) Звук, который сделал я, имеет некоторую особенность, лицензионный звук в районе 01:40:00 пришлось сдвинуть примерно на 150 мс, поэтому, если вы качаете другой релиз, будьте готовы получить рассинхрон в районе 200 с лишним мс. Я эту проблему решил, максимальный рассинхрон в этом релизе - 37 мс. К примеру рассинхрон в релизе Кинозала и не наших релизах Рутора 215 мс. Может кому-то это и не так важно, но я привык всё делать на совесть.
Общее
Формат : Matroska
Версия формата : Version 4 / Version 2
Размер файла : 2,19 Гбайт
Продолжительность : 2 ч. 18 м.
Общий поток : 2267 Кбит/сек
Дата кодирования : UTC 2014-03-19 16:06:17
Программа кодирования : mkvmerge v6.8.0 ('Theme for Great Cities') 64bit built on Mar 2 2014 21:34:26
Библиотека кодирования : libebml v1.3.0 + libmatroska v1.4.1

Видео
Идентификатор : 1
Формат : AVC
Формат/Информация : Advanced Video Codec
Профиль формата : High@L4.1
Параметр CABAC формата : Да
Параметр ReFrames формата : 6 кадров
Идентификатор кодека : V_MPEG4/ISO/AVC
Продолжительность : 2 ч. 18 м.
Битрейт : 1816 Кбит/сек
Ширина : 1056 пикселей
Высота : 440 пикселей
Соотношение сторон : 2,40:1
Режим частоты кадров : Постоянный
Частота кадров : 23,976 кадра/сек
Цветовое пространство : YUV
Субдискретизация насыщенности : 4:2:0
Битовая глубина : 8 бит
Тип развёртки : Прогрессивная
Бит/(Пиксели*Кадры) : 0.163
Размер потока : 1,71 Гбайт (78%)
Библиотека кодирования : x264 core 138 r2356 a1d3d17
Настройки программы : cabac=1 / ref=6 / deblock=1:-2:-1 / analyse=0x3:0x113 / me=umh / subme=10 / psy=1 / psy_rd=1.00:0.05 / mixed_ref=1 / me_range=32 / chroma_me=1 / trellis=2 / 8x8dct=1 / cqm=0 / deadzone=21,11 / fast_pskip=0 / chroma_qp_offset=-3 / threads=9 / lookahead_threads=1 / sliced_threads=0 / nr=0 / decimate=0 / interlaced=0 / bluray_compat=0 / constrained_intra=0 / bframes=8 / b_pyramid=2 / b_adapt=2 / b_bias=0 / direct=3 / weightb=1 / open_gop=0 / weightp=2 / keyint=250 / keyint_min=25 / scenecut=40 / intra_refresh=0 / rc=2pass / mbtree=0 / bitrate=1816 / ratetol=1.0 / qcomp=0.60 / qpmin=0 / qpmax=69 / qpstep=4 / cplxblur=20.0 / qblur=0.5 / ip_ratio=1.40 / pb_ratio=1.30 / aq=1:1.00
Язык : English
Default : Да
Forced : Нет

Аудио
Идентификатор : 2
Формат : AC-3
Формат/Информация : Audio Coding 3
Расширение режима : CM (complete main)
Параметр Endianness формата : Big
Идентификатор кодека : A_AC3
Продолжительность : 2 ч. 18 м.
Вид битрейта : Постоянный
Битрейт : 448 Кбит/сек
Каналы : 6 каналов
Расположение каналов : Front: L C R, Side: L R, LFE
Частота : 48,0 КГц
Битовая глубина : 16 бит
Метод сжатия : С потерями
Размер потока : 442 Мбайт (20%)
Язык : Russian
Default : Да
Forced : Нет

Текст #1
Идентификатор : 3
Формат : UTF-8
Идентификатор кодека : S_TEXT/UTF8
Идентификатор кодека/Информация : UTF-8 Plain Text
Язык : Russian
Default : Нет
Forced : Нет

Текст #2
Идентификатор : 4
Формат : UTF-8
Идентификатор кодека : S_TEXT/UTF8
Идентификатор кодека/Информация : UTF-8 Plain Text
Язык : English
Default : Нет
Forced : Нет

Меню
00:00:00.000 : en:00:00:00.000
00:07:12.641 : en:00:07:12.641
00:14:11.142 : en:00:14:11.142
00:24:08.822 : en:00:24:08.822
00:31:28.970 : en:00:31:28.970
00:39:16.104 : en:00:39:16.104
00:48:40.334 : en:00:48:40.334
00:57:01.001 : en:00:57:01.001
01:06:18.600 : en:01:06:18.600
01:15:30.943 : en:01:15:30.943
01:24:12.756 : en:01:24:12.756
01:33:09.793 : en:01:33:09.793
01:41:35.089 : en:01:41:35.089
01:51:45.824 : en:01:51:45.824
02:00:25.301 : en:02:00:25.301
02:09:50.992 : en:02:09:50.992
pb.wtf



Скачать Афера по-американски через торрент http://i62.fastpic.ru/big/2014/0518/5c/bd95179973bc3b988bdf0fbc9b40115c.jpg Скачать фильм Афера по-американски через торрент бесплантно в хорошем качестве Описание: В основе сюжета фильма реальная спецоперация, проводимая ФБР в конце 70-х — начале 80-х под кодовым названием Abscam. Она ... 7.8 10 4
Info! Золотая раздача, скачанное не засчитывается.
Торрент: Зарегистрирован [2016-03-21 07:20] · скачан: 102 раз
Статус: √ проверено
Размер: 2.62 GB
Как cкачать? Как скачать Афера по-американски через торрент | UTorrent

% Раздел Тема Автор DL S | L
Порно фильмы с русским переводом [ 2.55 GB ] Афера по-американски / American Hustle XXX Porn Parody [2014 Feature WEB-DL ] nn99nn Скачать
1 | 0
Фильмы 2013 [DVDrip, WEB-DLRip, HDrip] [ 1.58 GB ] Афера по-американски / American Hustle [2013 BDRip by keeper.52] DUB + Original + Sub keeper.52 Скачать
2 | 0
Фильмы 2013 [DVDrip, WEB-DLRip, HDrip] [ 2.62 GB ] Афера по-американски / American Hustle [2013 BDRip by keeper.52] DUB + Original + Sub keeper.52 Скачать
2 | 0
Фильмы с авторской озвучкой [ 1.46 GB ] Афера по-американски / American Hustle [2013 BDRip] [AVO] killermax2013 Скачать
1 | 0
Порно фильмы с сюжетом [ 2.52 GB ] Афера по-американски XXX / American Hustle XXX [2014 Порно-пародия WEB-DLRip Оригинал] Magnat Скачать
1 | 0
Фильмы 2013 [DVDrip, WEB-DLRip, HDrip] [ 2.91 GB ] Афера по-американски / American Hustle [2013 BDRip-AVC] DUB potroks Скачать
1 | 0
Фильмы 2013 [DVDrip, WEB-DLRip, HDrip] [ 2.18 GB ] Афера по-американски / American Hustle [2013 HDRip-AVC ] + Ukr + Sub White Smoke Скачать
1 | 0

28-11-2019 20:33  

Отключить всю рекламу на сайте

    Дорогой пользователь! Огромная просьба, поблагодарите релизера, оцените раздачу и оставьте свои комментарий, если Вы скачали Афера по-американски через торрент бесплатно! Внесите свою лепту в развитие PiratBit!
    Комментировать посты могут только пользователи прошедшие не сложную регистрацию
    Показать сообщения:    

    Афера по-американски через торрент
    Скачать бесплатно Афера по-американски
    Афера по-американски скачать торрент
    Афера по-американски смотреть онлайн
    Cкачать фильм Афера по-американски бесплатно
    Афера по-американски скачать торрент в хорошем качестве
    Афера по-американски смотреть онлайн бесплатно в хорошем качестве


    Вы не можете начинать темы
    Вы не можете отвечать на сообщения
    Вы не можете редактировать свои сообщения
    Вы не можете удалять свои сообщения
    Вы не можете голосовать в опросах
    Вы не можете прикреплять файлы к сообщениям
    Вы можете скачивать файлы