Присоединяйтесь к нам в Telegram!, здесь всегда актуальный адрес сайта, оперативная поддержка и многое другое!!

>

5.9

iTunes

7.4

iTunes

9.4

1 сезон

1

7.4

2 сезон

7.2

iTunes

7.3

1 сезон

13

6.1

iTunes

8.3

GOG

30

ULTIMATE

pack

9.9

Лицензия

ВАЖНО

ИГРА 18+

pack

7.3

RePack

MK11

7.7

RePack

jed

7.8

RePack

fifa19

8.5

RePack

RDR2

RePack

NEED FOR SPEED™ PAYBACK

5 сезон

9 сезон

Бесстыжие 9 сезон

Все сериалы

все сериалы на PB.wtf

RePack

FAR CRY 5

Anonymous, доброй ночи, мы катастрофически не успеваем собрать деньги на оплату серверов, помогите нам пожалуйста 5,10,15р., для нас важна любая помощь . В качестве благодарности мы отключим Вам всю рекламу на сайте (укажите свой ник в строку Ваше имя)!

×
  
Magnet ссылка

Анна Седокова - Между нами кайф [2013 г., Pop, HDTVRip 1080p] pb.wtf

Анна Седокова - Между нами кайф через торрент pb.wtf

Размер: 326 MB | Добавлен: 5 лет 8 мес. назад | Торрент скачан:22 раза
Смотреть онлайн Анна Седокова - Между нами кайф | Скачать    Ребята, помогите собрать деньги на оплату серверов!!!

21-03-2016 13:14 Анна Седокова - Между нами кайф Скачать торрент  

Анна Седокова - Между нами кайф
Год выпуска: 2013
Жанр: Pop
Продолжительность: 00:03:26
Качество:HDTVRip 1080p
Формат: MPEG4
Видео кодек: AVC
Аудио кодек:AAC
Видео: MPEG4 AVC, 1920x1080, 25,000 fps, 12,9 Mbit / s
Аудио#1: AAC 48,0 kHz, 2 ch, 317 kbps
поп-красавица Анна Седокова, в прошлом – участница популярнейшей группы «ВИА Гра», продолжает подтверждать свое звание одной из самых сексуальных певиц на эстраде СНГ. Видео было снято на последний сингл звезды под названием «Между нами». Режиссером этого необычного клипа выступил Евгений Тимохин.
Общее
Полное имя : Анна Седокова - Между нами кайф.mp4
Формат : MPEG-4
Профиль формата : Base Media / Version 2
Идентификатор кодека : mp42
Размер файла : 326 Мбайт
Продолжительность : 3 м. 26 с.
Режим общего битрейта : Переменный
Общий поток : 13,3 Мбит/сек
Дата кодирования : UTC 2014-04-25 08:54:41
Дата пометки : UTC 2014-04-25 08:54:48
©TIM : 00:00:00:00
©TSC : 25
©TSZ : 1

Видео
Идентификатор : 1
Формат : AVC
Формат/Информация : Advanced Video Codec
Профиль формата : High@L4.0
Параметр CABAC формата : Да
Параметр ReFrames формата : 3 кадра
Идентификатор кодека : avc1
Идентификатор кодека/Информация : Advanced Video Coding
Продолжительность : 3 м. 26 с.
Битрейт : 12,9 Мбит/сек
Ширина : 1920 пикселей
Высота : 1080 пикселей
Соотношение сторон : 16:9
Режим частоты кадров : Постоянный
Частота кадров : 25,000 кадров/сек
Стандарт вещания : PAL
Цветовое пространство : YUV
Субдискретизация насыщенности : 4:2:0
Битовая глубина : 8 бит
Тип развёртки : Прогрессивная
Бит/(Пиксели*Кадры) : 0.250
Размер потока : 318 Мбайт (98%)
Язык : English
Дата кодирования : UTC 2014-04-25 08:54:41
Дата пометки : UTC 2014-04-25 08:54:41
Основные цвета : BT.709
Характеристики трансфера : BT.709
Коэффициенты матрицы : BT.709

Аудио
Идентификатор : 2
Формат : AAC
Формат/Информация : Advanced Audio Codec
Профиль формата : LC
Идентификатор кодека : 40
Продолжительность : 3 м. 26 с.
Продолжительность оригинала : 3 м. 26 с.
Вид битрейта : Переменный
Битрейт : 317 Кбит/сек
Максимальный битрейт : 455 Кбит/сек
Каналы : 2 канала
Расположение каналов : Front: L R
Частота : 48,0 КГц
Метод сжатия : С потерями
Размер потока : 7,81 Мбайт (2%)
Размер потока оригинала : 7,81 Мбайт (2%)
Язык : English
Дата кодирования : UTC 2014-04-25 08:54:41
Дата пометки : UTC 2014-04-25 08:54:41
mdhd_Duration : 206400
pb.wtf



Скачать Анна Седокова - Между нами кайф через торрент http://s018.radikal.ru/i513/1603/ec/5f34110e8c96.jpg Скачать, смотреть онлайн Анна Седокова - Между нами кайф [2013 г., Pop, HDTVRip 1080p] бесплантно в хорошем качестве Год выпуска: 2013Жанр: PopПродолжительность: ... 5.8 10 4
Торрент: Зарегистрирован [2016-03-21 13:14] · скачан: 22 раз
Статус: √ проверено
Размер: 326 MB
Как cкачать? Как скачать Анна Седокова - Между нами кайф через торрент | UTorrent

28-11-2019 20:33  

Отключить всю рекламу на сайте

    Дорогой пользователь! Огромная просьба, поблагодарите релизера, оцените раздачу и оставьте свои комментарий, если Вы скачали Анна Седокова - Между нами кайф через торрент бесплатно!
    Комментировать посты могут только пользователи прошедшие не сложную регистрацию
    Показать сообщения:    

    Анна Седокова - Между нами кайф через торрент
    Скачать бесплатно Анна Седокова - Между нами кайф
    Анна Седокова - Между нами кайф скачать торрент
    Анна Седокова - Между нами кайф смотреть онлайн
    Cкачать фильм Анна Седокова - Между нами кайф бесплатно
    Анна Седокова - Между нами кайф скачать торрент в хорошем качестве
    Анна Седокова - Между нами кайф смотреть онлайн бесплатно в хорошем качестве


    Вы не можете начинать темы
    Вы не можете отвечать на сообщения
    Вы не можете редактировать свои сообщения
    Вы не можете удалять свои сообщения
    Вы не можете голосовать в опросах
    Вы не можете прикреплять файлы к сообщениям
    Вы можете скачивать файлы