2 сезон

iTunes

1 сезон

1

iTunes

iTunes

iTunes

1 сезон

RePack

30

ИГРА 18+

pack

ВАЖНО

!!Акция!!

Alien_RageХит недели

RePack

MK11
pack

Забери бонус

RePack

jed

!!Акция!!

Alien_Rage

RePack

fifa19

RePack

Assassins Creed: Odyssey

RePack

NEED FOR SPEED™ PAYBACK

4 сезон

9 сезон

Бесстыжие 9 сезон

Все сериалы

все сериалы на PB.wtf

RePack

FAR CRY 5
  

Шпионский мост / Bridge of Spies (Стивен Спилберг ) [2015, триллер, драма, история, BDRip 720p от _denis_100 / NNNB] DUB, AVO + Original + Sub (2xRus, 4xEng) pb.wtf

Шпионский мост через торрент pb.wtf

Размер: 7.75 GB | Добавлен: 4 года 7 мес. назад | Торрент скачан:205 раз
Скачать  

21-03-2016 16:57 Шпионский мост Скачать торрент  

Шпионский мост / Bridge of Spies
«Когда мир на грани войны, лишь честь одного человека может предотвратить катастрофу»


Год выпуска: 2015
Страна: США, Германия, Индия
Жанр: триллер, драма, история
Продолжительность: 02:21:19
Перевод: Дублированный, Авторский одноголосый [Юрий Сербин]
Субтитры: русские (Forced), русские, английские (Forced), английские, английские (SDH), английские (SDH-Colored)
Режиссер: Стивен Спилберг
В ролях: Том Хэнкс , Марк Райлэнс , Эми Райан , Алан Алда , Остин Стоуэлл , Скотт Шеперд , Джесси Племонс , Доменик Ломбардоззи , Себастьян Кох , Ив Хьюсон , Дэкин Мэтьюз , Майкл Гэстон
Описание:
Действие фильма происходит на фоне серии реальных исторических событий и рассказывает о бруклинском адвокате Джеймсе Доноване, который оказывается в эпицентре холодной войны, когда ЦРУ отправляет его на практически невозможное задание - договориться об освобождении захваченного в СССР американского пилота самолета-разведчика U2.

PG-13 - Детям до 13 лет просмотр не желателен
Качество: BDRip 720p
Контейнер (Расширение): MKV
Видео: 1280x534, 6124 Кбит/сек, 23,976 кадр/сек, 0,374 Бит/[Пиксели*Кадры]
Аудио №1: русский / AC3 / 5.1 / 48 kHz / 448 kbps / 16 bit |Дублированный|
Аудио №2: русский / AC3 / 5.1 / 48 kHz / 640 kbps / 16 bit |Авторский одноголосый [Юрий Сербин]|
Аудио №3: английский / AC3 / 5.1 / 48 kHz / 640 kbps / 16 bit
Навигация по главам(Чаптеры): естьАвтор рипа: Сообщество: Звуковые дорожки отдельно:

Код:

Format                                   : Matroska
Format version                           : Version 2
File size                                : 7.75 GiB
Duration                                 : 2h 21mn
Overall bit rate                         : 7 851 Kbps
Movie name                               : Bridge of Spies.(2015).BDRip.720p.[denis100]
Encoded date                             : UTC 2016-03-21 15:28:26
Writing application                      : mkvmerge v5.8.0 ('No Sleep / Pillow') built on Sep  2 2012 15:37:04
Writing library                          : libebml v1.2.3 + libmatroska v1.3.0

Video
ID                                       : 1
Format                                   : AVC
Format/Info                              : Advanced Video Codec
Format profile                           : High@L4.1
Format settings, CABAC                   : Yes
Format settings, ReFrames                : 11 frames
Codec ID                                 : V_MPEG4/ISO/AVC
Duration                                 : 2h 21mn
Bit rate                                 : 6 124 Kbps
Width                                    : 1 280 pixels
Height                                   : 534 pixels
Display aspect ratio                     : 2.40:1
Frame rate                               : 23.976 fps
Color space                              : YUV
Chroma subsampling                       : 4:2:0
Bit depth                                : 8 bits
Scan type                                : Progressive
Bits/(Pixel*Frame)                       : 0.374
Stream size                              : 5.89 GiB (76%)
Title                                    : Bridge of Spies.(2015).BDRip.720p.[denis100]
Writing library                          : x264 core 148 r2665 a01e339
Encoding settings                        : cabac=1 / ref=11 / deblock=1:-3:-3 / analyse=0x3:0x133 / me=umh / subme=11 / psy=1 / psy_rd=1.00:0.10 / mixed_ref=1 / me_range=32 / chroma_me=1 / trellis=2 / 8x8dct=1 / cqm=0 / deadzone=21,11 / fast_pskip=0 / chroma_qp_offset=-3 / threads=6 / lookahead_threads=1 / sliced_threads=0 / nr=0 / decimate=1 / interlaced=0 / bluray_compat=0 / constrained_intra=0 / bframes=10 / b_pyramid=2 / b_adapt=2 / b_bias=0 / direct=3 / weightb=1 / open_gop=0 / weightp=2 / keyint=240 / keyint_min=23 / scenecut=40 / intra_refresh=0 / rc=2pass / mbtree=0 / bitrate=6124 / ratetol=1.0 / qcomp=0.60 / qpmin=0 / qpmax=69 / qpstep=4 / cplxblur=20.0 / qblur=0.5 / ip_ratio=1.40 / pb_ratio=1.30 / aq=1:0.80
Language                                 : English
Default                                  : Yes
Forced                                   : No

Audio #1
ID                                       : 2
Format                                   : AC-3
Format/Info                              : Audio Coding 3
Mode extension                           : CM (complete main)
Codec ID                                 : A_AC3
Duration                                 : 2h 21mn
Bit rate mode                            : Constant
Bit rate                                 : 448 Kbps
Channel(s)                               : 6 channels
Channel positions                        : Front: L C R, Side: L R, LFE
Sampling rate                            : 48.0 KHz
Bit depth                                : 16 bits
Compression mode                         : Lossy
Stream size                              : 453 MiB (6%)
Title                                    : Дублированный
Language                                 : Russian
Default                                  : Yes
Forced                                   : No

Audio #2
ID                                       : 3
Format                                   : AC-3
Format/Info                              : Audio Coding 3
Mode extension                           : CM (complete main)
Codec ID                                 : A_AC3
Duration                                 : 2h 21mn
Bit rate mode                            : Constant
Bit rate                                 : 640 Kbps
Channel(s)                               : 6 channels
Channel positions                        : Front: L C R, Side: L R, LFE
Sampling rate                            : 48.0 KHz
Bit depth                                : 16 bits
Compression mode                         : Lossy
Stream size                              : 647 MiB (8%)
Title                                    : Авторский, Сербин
Language                                 : Russian
Default                                  : No
Forced                                   : No

Audio #3
ID                                       : 4
Format                                   : AC-3
Format/Info                              : Audio Coding 3
Mode extension                           : CM (complete main)
Codec ID                                 : A_AC3
Duration                                 : 2h 21mn
Bit rate mode                            : Constant
Bit rate                                 : 640 Kbps
Channel(s)                               : 6 channels
Channel positions                        : Front: L C R, Side: L R, LFE
Sampling rate                            : 48.0 KHz
Bit depth                                : 16 bits
Compression mode                         : Lossy
Stream size                              : 647 MiB (8%)
Language                                 : English
Default                                  : No
Forced                                   : No

Text #1
ID                                       : 5
Format                                   : UTF-8
Codec ID                                 : S_TEXT/UTF8
Codec ID/Info                            : UTF-8 Plain Text
Title                                    : Forced
Language                                 : Russian
Default                                  : Yes
Forced                                   : No

Text #2
ID                                       : 6
Format                                   : UTF-8
Codec ID                                 : S_TEXT/UTF8
Codec ID/Info                            : UTF-8 Plain Text
Language                                 : Russian
Default                                  : No
Forced                                   : No

Text #3
ID                                       : 7
Format                                   : UTF-8
Codec ID                                 : S_TEXT/UTF8
Codec ID/Info                            : UTF-8 Plain Text
Title                                    : Forced
Language                                 : English
Default                                  : No
Forced                                   : No

Text #4
ID                                       : 8
Format                                   : UTF-8
Codec ID                                 : S_TEXT/UTF8
Codec ID/Info                            : UTF-8 Plain Text
Language                                 : English
Default                                  : No
Forced                                   : No

Text #5
ID                                       : 9
Format                                   : UTF-8
Codec ID                                 : S_TEXT/UTF8
Codec ID/Info                            : UTF-8 Plain Text
Title                                    : SDH
Language                                 : English
Default                                  : No
Forced                                   : No

Text #6
ID                                       : 10
Format                                   : UTF-8
Codec ID                                 : S_TEXT/UTF8
Codec ID/Info                            : UTF-8 Plain Text
Title                                    : SDH-Colored
Language                                 : English
Default                                  : No
Forced                                   : No

Menu
00:00:00.000                             : en:00:00:00.000
00:10:29.461                             : en:00:10:29.461
00:17:46.481                             : en:00:17:46.481
00:22:09.827                             : en:00:22:09.827
00:25:27.901                             : en:00:25:27.901
00:31:18.209                             : en:00:31:18.209
00:37:45.721                             : en:00:37:45.721
00:45:29.268                             : en:00:45:29.268
00:52:36.695                             : en:00:52:36.695
01:00:39.427                             : en:01:00:39.427
01:07:17.867                             : en:01:07:17.867
01:16:52.399                             : en:01:16:52.399
01:33:55.671                             : en:01:33:55.671
01:45:41.752                             : en:01:45:41.752
01:56:31.192                             : en:01:56:31.192
02:07:20.548                             : en:02:07:20.548
02:14:18.800                             : en:02:14:18.800

x264 [info]: frame I:1271 Avg QP:13.00 size:140445
x264 [info]: frame P:42301 Avg QP:15.30 size: 56879
x264 [info]: frame B:159736 Avg QP:17.77 size: 24429
pb.wtf



Скачать Шпионский мост через торрент http://i74.fastpic.ru/big/2016/0321/24/ab13e6699852a1f5aaab0844bf44aa24.png Скачать фильм Шпионский мост через торрент бесплантно в хорошем качестве Описание:Действие фильма происходит на фоне серии реальных исторических событий и рассказывает о бруклинском адвокате Джеймсе Доноване, ... 7.5 10 6
Info! Золотая раздача, скачанное не засчитывается.
Торрент: Зарегистрирован [2016-03-21 16:57] · скачан: 205 раз
Статус: √ проверено
Размер: 7.75 GB
Как cкачать? Как скачать Шпионский мост через торрент | qTorrent

% Раздел Тема Автор DL S | L
Фильмы 2015 [DVDrip, WEB-DLRip, HDrip] [ 2.91 GB ] Шпионский мост / Bridge of Spies [2015 Германия Индия биография BDRip-AVC от sokol_ok] DUB sokol_ok Скачать
1 | 0
Фильмы [HD 720p, 1080p] (Хороший звук DUB, MVO) [ 7.96 GB ] Шпионский мост / Bridge of Spies [2015 биография BDRip 720p] DUB potroks Скачать
1 | 0
Фильмы (DVD фильмы) [ 7.28 GB ] Шпионский мост / Bridge of Spies [2015 история DVD9] R5 voovaz Скачать
1 | 0
Фильмы 2015 [DVDrip, WEB-DLRip, HDrip] [ 1.46 GB ] Шпионский мост / Bridge of Spies [2015 биография BDRip] DUB Twi7ter Скачать
1 | 0
Фильмы 2015 [DVDrip, WEB-DLRip, HDrip] [ 2.19 GB ] Шпионский мост / Bridge of Spies [2015 история HDRip ""] coc900 Скачать
1 | 0
Фильмы (Blu-ray, BD-Remux, HDDVD) [ 29.79 GB ] Шпионский мост / Bridge of Spies [2015 биография BDRemux 1080p] Russian Mafia Скачать
1 | 0
Фильмы (Blu-ray, BD-Remux, HDDVD) [ 46.12 GB ] Шпионский мост / Bridge of Spies [2015 биография Blu-ray] Russian Mafia Скачать
1 | 0

28-11-2019 20:33  

Отключить всю рекламу на сайте

    Дорогой пользователь! Огромная просьба, поблагодарите релизера, оцените раздачу и оставьте свои комментарий, если Вы скачали Шпионский мост через торрент бесплатно! Внесите свою лепту в развитие PiratBit!
    Комментировать посты могут только пользователи прошедшие не сложную регистрацию
    Показать сообщения:    

    Шпионский мост через торрент
    Скачать бесплатно Шпионский мост
    Шпионский мост скачать торрент
    Шпионский мост смотреть онлайн
    Cкачать фильм Шпионский мост бесплатно
    Шпионский мост скачать торрент в хорошем качестве
    Шпионский мост смотреть онлайн бесплатно в хорошем качестве


    Вы не можете начинать темы
    Вы не можете отвечать на сообщения
    Вы не можете редактировать свои сообщения
    Вы не можете удалять свои сообщения
    Вы не можете голосовать в опросах
    Вы не можете прикреплять файлы к сообщениям
    Вы можете скачивать файлы