2 сезон

iTunes

1 сезон

1

iTunes

iTunes

iTunes

1 сезон

RePack

30

ИГРА 18+

pack

ВАЖНО

!!Акция!!

Alien_RageХит недели

RePack

MK11
pack

Забери бонус

RePack

jed

!!Акция!!

Alien_Rage

RePack

fifa19

RePack

Assassins Creed: Odyssey

RePack

NEED FOR SPEED™ PAYBACK

4 сезон

9 сезон

Бесстыжие 9 сезон

Все сериалы

все сериалы на PB.wtf

RePack

FAR CRY 5
  

Дикость / Wild Things (Джон МакНотон / John McNaughton) [1998, триллер, драма, криминал, BDRip 720p от potroks] [Unrated] DUB, MVO, AVO pb.wtf

Дикость через торрент pb.wtf

Размер: 8.26 GB | Добавлен: 4 года 7 мес. назад | Торрент скачан:50 раз
Скачать  

21-03-2016 18:23 Дикость Скачать торрент  

Дикость / Wild Things
«Её красота требует жертв»
Год выпуска: 1998
Страна: США / Mandalay Entertainment
Жанр: триллер, драма, криминал, детектив
Продолжительность: 01:54:46
Перевод: Дубляж, Профессиональный (многоголосый), Авторский (одноголосый)
Субтитры: русские, английские (Full), английские (SDH)
Навигация по главам: есть
Режиссер: Джон МакНотон / John McNaughton
В ролях:

Кевин Бейкон (Ray Duquette), Мэтт Диллон (Sam Lombardo), Нив Кэмпбелл (Suzie Toller), Тереза Расселл (Sandra Van Ryan), Дениз Ричардс (Kelly Van Ryan), Дафна Рубин-Вега (Gloria Perez), Роберт Вагнер (Tom Baxter), Билл Мюррей (Ken Bowden), Кэрри Снодгресс (Ruby), Джефф Перри (Bryce Hunter), Кори Пендергаст (Jimmy Leach), Марк Маколей (Walter)
Описание: Семнадцатилетняя Келли влюбляется в своего учителя Сэма. Она использует всевозможные способы, чтобы привлечь его внимание, но безрезультатно. А когда девушка не получает желаемого, она начинает мстить. Несостоявшаяся любовница обвиняет Сэма в изнасиловании.
Улик явно недостаточно, пока на помощь Келли не приходит ее подруга, которая готова давать показания. Но вскоре девушка понимает, что является лишь пешкой в нечестной игре...

Качество: BDRip 720p
Формат: MKV
Видео кодек: AVC
Аудио кодек: AC3
Видео: 1280x534 (2.40:1), 6459 kbps, 23,976 fps, 0,394 bit/pixel
Аудио №1: AC3 / 5.1 / 48 kHz / 448 kbps / 16 bit | DUB - Невафильм
Аудио №2: AC3 / 5.1 / 48 kHz / 640 kbps / 16 bit | MVO - Видеосервис
Аудио №3: AC3 / 2.0 / 48 kHz / 192 kbps / 16 bit | MVO - ОРТ
Аудио №4: AC3 / 2.0 / 48 kHz / 192 kbps / 16 bit | MVO - СТС
Аудио №5: AC3 / 5.1 / 48 kHz / 448 kbps / 16 bit | AVO - Ю.Гаврилов
Аудио №6: AC3 / 5.1 / 48 kHz / 640 kbps / 16 bit | AVO - Ю.Живов
Аудио №7: AC3 / 5.1 / 48 kHz / 640 kbps / 16 bit | AVO - В.Королев
Аудио №8: AC3 / 5.1 / 48 kHz / 640 kbps / 16 bit | ENG

Автор рипа: potroks

Код:

Общее
Уникальный идентификатор : 210405671661018937768718261017770394233 (0x9E4AA889C328DC61AF978BB131D70279)
Полное имя : Dikost.1998.UC.DUB.MVO.AVO.ENG.BDRip.720p.by_potroks.mkv
Формат : Matroska
Версия формата : Version 4 / Version 2
Размер файла : 8,26 Гбайт
Продолжительность : 1 ч. 54 м.
Общий поток : 10,3 Мбит/сек
Название фильма : Wild Things (1998)
Дата кодирования : UTC 2016-03-21 09:53:47
Программа кодирования : mkvmerge v5.9.0 ('On The Loose') built on Dec 15 2012 16:39:58
Библиотека кодирования : libebml v1.3.0 + libmatroska v1.4.0

Видео
Идентификатор : 1
Формат : AVC
Формат/Информация : Advanced Video Codec
Профиль формата : High@L4.1
Параметр CABAC формата : Да
Параметр ReFrames формата : 9 кадров
Идентификатор кодека : V_MPEG4/ISO/AVC
Продолжительность : 1 ч. 54 м.
Битрейт : 6459 Кбит/сек
Ширина : 1280 пикселей
Высота : 534 пикселя
Соотношение сторон : 2,40:1
Режим частоты кадров : Постоянный
Частота кадров : 23,976 кадра/сек
Цветовое пространство : YUV
Субдискретизация насыщенности : 4:2:0
Битовая глубина : 8 бит
Тип развёртки : Прогрессивная
Бит/(Пиксели*Кадры) : 0.394
Размер потока : 5,02 Гбайт (61%)
Заголовок : potroks
Библиотека кодирования : x264 core 146 r2538 121396c
Настройки программы : cabac=1 / ref=9 / deblock=1:-3:-3 / analyse=0x3:0x113 / me=umh / subme=11 / psy=1 / psy_rd=0.99:0.00 / mixed_ref=1 / me_range=48 / chroma_me=1 / trellis=2 / 8x8dct=1 / cqm=0 / deadzone=21,11 / fast_pskip=0 / chroma_qp_offset=-2 / threads=9 / lookahead_threads=2 / sliced_threads=0 / nr=0 / decimate=0 / interlaced=0 / bluray_compat=0 / constrained_intra=0 / bframes=10 / b_pyramid=2 / b_adapt=2 / b_bias=0 / direct=3 / weightb=1 / open_gop=0 / weightp=2 / keyint=240 / keyint_min=23 / scenecut=40 / intra_refresh=0 / rc_lookahead=60 / rc=2pass / mbtree=0 / bitrate=6459 / ratetol=1.0 / qcomp=0.70 / qpmin=0 / qpmax=69 / qpstep=4 / cplxblur=20.0 / qblur=0.5 / vbv_maxrate=14000 / vbv_bufsize=14000 / nal_hrd=none / filler=0 / ip_ratio=1.40 / pb_ratio=1.30 / aq=1:0.80
Язык : English
Default : Да
Forced : Нет

Аудио #1
Идентификатор : 2
Формат : AC-3
Формат/Информация : Audio Coding 3
Расширение режима : CM (complete main)
Параметр Endianness формата : Big
Идентификатор кодека : A_AC3
Продолжительность : 1 ч. 54 м.
Вид битрейта : Постоянный
Битрейт : 448 Кбит/сек
Каналы : 6 каналов
Расположение каналов : Front: L C R, Side: L R, LFE
Частота : 48,0 КГц
Метод сжатия : С потерями
Размер потока : 368 Мбайт (4%)
Заголовок : Dub | DD 5.1 @ 448 kbps - Nevafilm
Язык : Russian
Default : Да
Forced : Нет

Аудио #2
Идентификатор : 3
Формат : AC-3
Формат/Информация : Audio Coding 3
Расширение режима : CM (complete main)
Параметр Endianness формата : Big
Идентификатор кодека : A_AC3
Продолжительность : 1 ч. 54 м.
Вид битрейта : Постоянный
Битрейт : 640 Кбит/сек
Каналы : 6 каналов
Расположение каналов : Front: L C R, Side: L R, LFE
Частота : 48,0 КГц
Метод сжатия : С потерями
Размер потока : 525 Мбайт (6%)
Заголовок : MVO | DD 5.1 @ 640 kbps - Videoservice
Язык : Russian
Default : Нет
Forced : Нет

Аудио #3
Идентификатор : 4
Формат : AC-3
Формат/Информация : Audio Coding 3
Расширение режима : CM (complete main)
Параметр Endianness формата : Big
Идентификатор кодека : A_AC3
Продолжительность : 1 ч. 54 м.
Вид битрейта : Постоянный
Битрейт : 192 Кбит/сек
Каналы : 2 канала
Расположение каналов : Front: L R
Частота : 48,0 КГц
Метод сжатия : С потерями
Размер потока : 158 Мбайт (2%)
Заголовок : MVO | DD 2.0 @ 192 kbps - ORT
Язык : Russian
Default : Нет
Forced : Нет

Аудио #4
Идентификатор : 5
Формат : AC-3
Формат/Информация : Audio Coding 3
Расширение режима : CM (complete main)
Параметр Endianness формата : Big
Идентификатор кодека : A_AC3
Продолжительность : 1 ч. 54 м.
Вид битрейта : Постоянный
Битрейт : 192 Кбит/сек
Каналы : 2 канала
Расположение каналов : Front: L R
Частота : 48,0 КГц
Метод сжатия : С потерями
Размер потока : 158 Мбайт (2%)
Заголовок : MVO | DD 2.0 @ 192 kbps - CTC
Язык : Russian
Default : Нет
Forced : Нет

Аудио #5
Идентификатор : 6
Формат : AC-3
Формат/Информация : Audio Coding 3
Расширение режима : CM (complete main)
Параметр Endianness формата : Big
Идентификатор кодека : A_AC3
Продолжительность : 1 ч. 54 м.
Вид битрейта : Постоянный
Битрейт : 448 Кбит/сек
Каналы : 6 каналов
Расположение каналов : Front: L C R, Side: L R, LFE
Частота : 48,0 КГц
Метод сжатия : С потерями
Размер потока : 368 Мбайт (4%)
Заголовок : AVO | DD 5.1 @ 448 kbps - Yu.Gavrilov
Язык : Russian
Default : Нет
Forced : Нет

Аудио #6
Идентификатор : 7
Формат : AC-3
Формат/Информация : Audio Coding 3
Расширение режима : CM (complete main)
Параметр Endianness формата : Big
Идентификатор кодека : A_AC3
Продолжительность : 1 ч. 54 м.
Вид битрейта : Постоянный
Битрейт : 640 Кбит/сек
Каналы : 6 каналов
Расположение каналов : Front: L C R, Side: L R, LFE
Частота : 48,0 КГц
Метод сжатия : С потерями
Размер потока : 525 Мбайт (6%)
Заголовок : AVO | DD 5.1 @ 640 kbps - Yu.Zhyvov
Язык : Russian
Default : Нет
Forced : Нет

Аудио #7
Идентификатор : 8
Формат : AC-3
Формат/Информация : Audio Coding 3
Расширение режима : CM (complete main)
Параметр Endianness формата : Big
Идентификатор кодека : A_AC3
Продолжительность : 1 ч. 54 м.
Вид битрейта : Постоянный
Битрейт : 640 Кбит/сек
Каналы : 6 каналов
Расположение каналов : Front: L C R, Side: L R, LFE
Частота : 48,0 КГц
Метод сжатия : С потерями
Размер потока : 525 Мбайт (6%)
Заголовок : AVO | DD 5.1 @ 640 kbps - V.Korolev
Язык : Russian
Default : Нет
Forced : Нет

Аудио #8
Идентификатор : 9
Формат : AC-3
Формат/Информация : Audio Coding 3
Расширение режима : CM (complete main)
Параметр Endianness формата : Big
Идентификатор кодека : A_AC3
Продолжительность : 1 ч. 54 м.
Вид битрейта : Постоянный
Битрейт : 640 Кбит/сек
Каналы : 6 каналов
Расположение каналов : Front: L C R, Side: L R, LFE
Частота : 48,0 КГц
Метод сжатия : С потерями
Размер потока : 525 Мбайт (6%)
Заголовок : Original | DD 5.1 @ 640 kbps
Язык : English
Default : Нет
Forced : Нет

Текст #1
Идентификатор : 10
Формат : UTF-8
Идентификатор кодека : S_TEXT/UTF8
Идентификатор кодека/Информация : UTF-8 Plain Text
Язык : Russian
Default : Нет
Forced : Нет

Текст #2
Идентификатор : 11
Формат : UTF-8
Идентификатор кодека : S_TEXT/UTF8
Идентификатор кодека/Информация : UTF-8 Plain Text
Заголовок : Full
Язык : English
Default : Нет
Forced : Нет

Текст #3
Идентификатор : 12
Формат : UTF-8
Идентификатор кодека : S_TEXT/UTF8
Идентификатор кодека/Информация : UTF-8 Plain Text
Заголовок : SDH
Язык : English
Default : Нет
Forced : Нет

Меню
00:00:00.000 : en:(01)00:00:00:000
00:03:55.318 : en:(02)00:03:55:318
00:13:35.022 : en:(03)00:13:35:022
00:19:46.351 : en:(04)00:19:46:351
00:26:08.650 : en:(05)00:26:08:650
00:32:33.785 : en:(06)00:32:33:785
00:40:53.324 : en:(07)00:40:53:324
00:51:34.299 : en:(08)00:51:34:299
00:59:59.971 : en:(09)00:59:59:971
01:06:33.364 : en:(10)01:06:33:364
01:13:38.956 : en:(11)01:13:38:956
01:20:09.304 : en:(12)01:20:09:304
01:28:21.254 : en:(13)01:28:21:254
01:31:48.836 : en:(14)01:31:48:836
01:34:44.929 : en:(15)01:34:44:929
01:42:09.790 : en:(16)01:42:09:790

pb.wtf



Скачать Дикость через торрент http://i75.fastpic.ru/big/2016/0321/88/897338421e04cdb99d2c5cedf5e4a788.png Скачать фильм Дикость через торрент бесплантно в хорошем качестве Описание: Семнадцатилетняя Келли влюбляется в своего учителя Сэма. Она использует всевозможные способы, чтобы привлечь его внимание, но ... 10 10 6
Info! Золотая раздача, скачанное не засчитывается.
Торрент: Зарегистрирован [2016-03-21 18:23] · скачан: 50 раз
Статус: √ проверено
Размер: 8.26 GB
Как cкачать? Как скачать Дикость через торрент | qTorrent

% Раздел Тема Автор DL S | L
Фильмы [HD 720p, 1080p] (Хороший звук DUB, MVO) [ 5.31 GB ] Дикость / Wild Things [1998 BDRip 720p] DUB MVO 3 x AVO msltel Скачать
1 | 0
Фильмы до 2000 г. [ 3.85 GB ] Дикость / Wild Things [1998 BDRip-AVC] DUB MVO 3 x AVO msltel Скачать
2 | 0

28-11-2019 20:33  

Отключить всю рекламу на сайте

21-03-2016 19:30 Дикость Скачать торрент  

Всем рекомендую,начинал смотреть только из за красивых девок(сцена с денис ричардс из этого кино считается одной из топовых в Голливуде среди сцен с обнаженкой), а там оказалось и сюжет довольно закрученные.pb.wtf



06-05-2019 16:13 Дикость Скачать торрент  

Раздайте,плз pb.wtf



    Дорогой пользователь! Огромная просьба, поблагодарите релизера, оцените раздачу и оставьте свои комментарий, если Вы скачали Дикость через торрент бесплатно! Внесите свою лепту в развитие PiratBit!
    Комментировать посты могут только пользователи прошедшие не сложную регистрацию
    Показать сообщения:    

    Дикость через торрент
    Скачать бесплатно Дикость
    Дикость скачать торрент
    Дикость смотреть онлайн
    Cкачать фильм Дикость бесплатно
    Дикость скачать торрент в хорошем качестве
    Дикость смотреть онлайн бесплатно в хорошем качестве


    Вы не можете начинать темы
    Вы не можете отвечать на сообщения
    Вы не можете редактировать свои сообщения
    Вы не можете удалять свои сообщения
    Вы не можете голосовать в опросах
    Вы не можете прикреплять файлы к сообщениям
    Вы можете скачивать файлы