Ссылка на приватное зеркало нашего сайта всего за 1$. Внимание количество ограничено!!!

2 сезон

iTunes

1 сезон

1

2 сезон

2 сезон

iTunes

1 сезон

RePack

30

Ultimate

ВАЖНО

ИГРА 18+

pack

RePack

MK11
pack

Забери бонус

RePack

jed

!!Акция!!

Alien_Rage

RePack

fifa19

RePack

Assassins Creed: Odyssey

RePack

NEED FOR SPEED™ PAYBACK

4 сезон

9 сезон

Бесстыжие 9 сезон

Все сериалы

все сериалы на PB.wtf

RePack

FAR CRY 5
  

Сорвиголова / Daredevil / Сезон: 2 / Серии 13 из 13 (Фил Абрахам, Стивен С. ДеНайт, Кен Джиротти) [2016 г., фантастика,боевик, WEB-DLRip, MVO (LostFilm)] pb.wtf

Сорвиголова через торрент pb.wtf

Размер: 6.22 GB | Добавлен: 4 года 6 мес. назад | Торрент скачан:222 раза
Скачать  

21-03-2016 18:47 Сорвиголова Скачать торрент  

Сорвиголова / Daradevil
Год выпуска: 2016
Страна: США
Жанр: фантастика, боевик
Продолжительность: ~ 00:48:00 серия
Перевод: Профессиональный (многоголосый, закадровый)

Режиссер: Фил Абрахам, Стивен С. ДеНайт, Кен Джиротти



В ролях: Чарли Кокс, Дебора Энн Уолл, Элден Хенсон, Розарио Доусон, Винсент Д`Онофрио, Айелет Зурер, Боб Гантон, Тоби Мур, Вонди Куртис-Холл, Роб Морган

Описание: В результате несчастного случая юный Мэтт Мердок теряет зрение, но зато все остальные его чувства усиливаются в десятки раз. Повзрослев, Мердок понимает, что хочет посвятить свою жизнь защите людей и борьбе с преступностью. Днем он — успешный адвокат, а ночью — мститель в маске по прозвищу Сорвиголова.


Качество: WEB-DLRip
Формат: AVI
Видео кодек: XviD
Аудио кодек: MP3
Видео: XviD | 720x400 (16:9) | ~1 365 kbps | 23.976 fps
Аудио#1: MP3 | 48 KHz | 2.0 (Front: L R) | ~192 kbps [RUS]





General
Complete name : D:\Загрузка\Torrent\Сорвиголова (2 сезон) - LostFilm.TV\S02E01.Бах.avi
Format : AVI
Format/Info : Audio Video Interleave
File size : 540 MiB
Duration : 48mn 14s
Overall bit rate mode : Variable
Overall bit rate : 1 566 Kbps
Writing application : Nandub v1.0rc2
Writing library : Nandub build 1853/release

Video
ID : 0
Format : MPEG-4 Visual
Format profile : Advanced Simple@L5
Format settings, BVOP : No
Format settings, QPel : No
Format settings, GMC : No warppoints
Format settings, Matrix : Default (H.263)
Codec ID : XVID
Codec ID/Hint : XviD
Duration : 48mn 14s
Bit rate : 1 365 Kbps
Width : 720 pixels
Height : 400 pixels
Display aspect ratio : 16:9
Frame rate : 23.976 (23976/1000) fps
Color space : YUV
Chroma subsampling : 4:2:0
Bit depth : 8 bits
Scan type : Progressive
Compression mode : Lossy
Bits/(Pixel*Frame) : 0.198
Stream size : 471 MiB (87%)
Writing library : XviD 1.2.1 (UTC 2008-12-04)

Audio
ID : 1
Format : MPEG Audio
Format version : Version 1
Format profile : Layer 3
Mode : Joint stereo
Mode extension : MS Stereo
Codec ID : 55
Codec ID/Hint : MP3
Duration : 48mn 14s
Bit rate mode : Variable
Bit rate : 192 Kbps
Channel(s) : 2 channels
Sampling rate : 48.0 KHz
Compression mode : Lossy
Stream size : 64.9 MiB (12%)
Alignment : Aligned on interleaves
Interleave, duration : 24 ms (0.58 video frame)
Interleave, preload duratio : 493 ms
Writing library : LAME3.97b
Encoding settings : -m j -V 4 -q 3 -lowpass 18.6 --abr 192

  • Остановить скачивание
  • Удалить старый торрент у себя из клиента (старые серии удалять не надо)
  • Скачать новый торрент и запустить его у себя в клиенте вместо старого, при этом указать клиенту путь в старую папку куда и должно происходить скачивание новых серий.

    Ваш клиент при этом должен произвести хеширование (проверку) старой папки (если не производит сам - помогите ему сделать это), и будет докачивать только те серии которых у вас ещё нет. Старые серии при этом не удаляются, а продолжают раздаваться!

    Eсли вы уже удалили старые серии, то предотвратить повторную закачку старых серий можно, отжав галочку в соответсвующих местах при запуске нового торрента. По возможности, желательно не удалять старые серии как можно дольше чтобы релизёр не столько продолжал раздавать старые серии, а смог сконцентрироваться на новых.
  • Оформление:Alex_EДобавлена 13 финальная серия (03.05.2016)Просьба перекачать торрентСериал официально продлен на 3 сезон pb.wtf



    Скачать Сорвиголова через торрент http://pic.kartinco.top/images/11/55r7l.jpg Скачать фильм Сорвиголова через торрент бесплантно в хорошем качестве Описание: В результате несчастного случая юный Мэтт Мердок теряет зрение, но зато все остальные его чувства усиливаются в десятки раз. ... 10 10 18
    Торрент: Зарегистрирован [2016-05-03 14:31] · скачан: 222 раз
    Статус: √ проверено
    Размер: 6.22 GB
    Как cкачать? Как скачать Сорвиголова через торрент | qTorrent

    % Раздел Тема Автор DL S | L
    Зарубежные сериалы [ 52.52 GB ] Сорвиголова / Daredevil / Сезон: 2 / Серии 01-13 из 13 [2016 WEBRip 1080p] MVO [NewStudio] -Lexx- Скачать
    1 | 0
    Зарубежные сериалы [ 13.85 GB ] Сорвиголова / Daredevil / Сезон: 2 / Серии 1-13 из 13 [2016 WEBRip-AVC] MVO [BaibaKo] GEKADOL Скачать
    1 | 0
    Зарубежные сериалы [ 21.78 GB ] Сорвиголова / Daredevil / Сезон: 2 / Серии 01-13 из 13 [2016 WEBRip 720p] MVO [NewStudio] rustam Скачать
    1 | 0

    28-11-2019 20:33  

    Отключить всю рекламу на сайте

    03-05-2016 16:21 Сорвиголова Скачать торрент  

    наконец-то, можно покупать ящик чипсов и смотреть. pb.wtf



    16-01-2017 00:00 Сорвиголова Скачать торрент  

    Скорости плиз pb.wtf



    16-01-2017 02:56 Сорвиголова Скачать торрент  

    Народ газку плиз pb.wtf



      Дорогой пользователь! Огромная просьба, поблагодарите релизера, оцените раздачу и оставьте свои комментарий, если Вы скачали Сорвиголова через торрент бесплатно! Внесите свою лепту в развитие PiratBit!
      Комментировать посты могут только пользователи прошедшие не сложную регистрацию
      Показать сообщения:    

      Сорвиголова через торрент
      Скачать бесплатно Сорвиголова
      Сорвиголова скачать торрент
      Сорвиголова смотреть онлайн
      Cкачать фильм Сорвиголова бесплатно
      Сорвиголова скачать торрент в хорошем качестве
      Сорвиголова смотреть онлайн бесплатно в хорошем качестве


      Вы не можете начинать темы
      Вы не можете отвечать на сообщения
      Вы не можете редактировать свои сообщения
      Вы не можете удалять свои сообщения
      Вы не можете голосовать в опросах
      Вы не можете прикреплять файлы к сообщениям
      Вы можете скачивать файлы