Доктор Стрэндж

Лицензия

Добыча

MVO

Дом дракона

1 сезон

Тор

Лицензия

Мэверик

Лицензия

Там, где раки поют

MVO

Властелин колец

1 сезон

Ultimate

pack

Рекомендуем

30

Repack

ВАЖНО

ВАЖНО

Ghostwire

RePack

jed

RePack

nioh2

RePack

RDR2

RePack

NEED FOR SPEED™ PAYBACK

RePack

скачать торрент

Кинопоиск HD

Острые козырьки 6 сезон

6 сезон

FAR CRY 6

RePack

скачать торрент

Лицензия

скачать торрент

MVO

1

1 сезон

скачать торрент

1 сезон

скачать торрент

Лицензия

  

Голодные игры: Сойка-пересмешница. Часть II / The Hunger Games: Mockingjay - Part 2 (Френсис Лоуренс) [2015, фантастика, приключения, BDRip-AVC, Дубляж] iTunes R.G.Resident

Голодные игры: Сойка-пересмешница. Часть II через торрент pb.wtf

Размер: 2.21 GB | Добавлен: 6 лет 6 мес. назад | Торрент скачан:1118 раз
Смотреть онлайн Голодные игры: Сойка-пересмешница. Часть II | Скачать   

21-03-2016 19:54 Голодные игры: Сойка-пересмешница. Часть II Скачать торрент  

Голодные игры: Сойка-пересмешница. Часть II / The Hunger Games: Mockingjay - Part 2
««Да не угаснет пламя»»

Год выпуска: 2015
Страна: США, Германия
Жанр: фантастика, приключения
Продолжительность: 02:16:57
Перевод: Дубляж - [Лицензия / iTunes]
Режиссер: Френсис Лоуренс
В ролях:

Дженнифер Лоуренс (Katniss Everdeen), Джош Хатчерсон (Peeta Mellark), Лиам Хемсворт (Gale Hawthorne), Вуди Харрельсон (Haymitch Abernathy), Дональд Сазерленд (President Snow), Филип Сеймур Хоффман (Plutarch Heavensbee), Джулианна Мур (President Alma Coin), Уиллоу Шилдс (Primrose Everdeen), Сэм Клафлин (Finnick Odair), Элизабет Бэнкс (Effie Trinket), Махершала Али (Boggs), Джена Мэлоун (Johanna Mason)
Описание:
В Панеме начинается гражданская война против власти Капитолия. Китнисс Эвердин является символом Революции, однако сама себя не осознает как мессия повстанцев. Заручившись помощью близких друзей, Китнисс отправляется в Капитолий. Друзья готовы рискнуть своими жизнями, чтобы освободить граждан Панема, а Китнисс предпринимает попытку убить президента Сноу, который, в свою очередь, одержим идеей навсегда покончить с героиней Дистрикта 12. Но победа повстанцев имеет горький вкус, и Китнисс ждёт гораздо более трудное испытание, чем смертельные ловушки арены Голодных игр.
Мировая премьера: 4 ноября 2015

MPAA: PG-13 - Детям до 13 лет просмотр не желателен
Качество: BDRip-AVC Rip by schultz R.G.Resident
Формат: MKV
Видео: AVC, 1024x426 (2.40:1), 1930 kbps, 23,976 fps, 0,185 bpp
Аудио: AC3 / 5.1 / 48 kHz / 384 kbps / 16 bit

Код:

General
Unique ID                                : 244275331437665953890892041553112608554 (0xB7C5B7B14C1A61D587797F5CAE722F2A)
Complete name                            : D:\download\The.Hunger.Games.Mockingjay.Part.2.2015.BDRip-AVC by schultz R.G.Resident.mkv
Format                                   : Matroska
Format version                           : Version 4 / Version 2
File size                                : 2.21 GiB
Duration                                 : 2h 16mn
Overall bit rate                         : 2 314 Kbps
Encoded date                             : UTC 2016-03-21 19:45:07
Writing application                      : mkvmerge v6.7.0 ('Back to the Ground') 64bit built on Jan  8 2014 15:10:52
Writing library                          : libebml v1.3.0 + libmatroska v1.4.1

Video
ID                                       : 1
Format                                   : AVC
Format/Info                              : Advanced Video Codec
Format profile                           : [email protected]
Format settings, CABAC                   : Yes
Format settings, ReFrames                : 12 frames
Codec ID                                 : V_MPEG4/ISO/AVC
Duration                                 : 2h 16mn
Bit rate                                 : 1 930 Kbps
Width                                    : 1 024 pixels
Height                                   : 426 pixels
Display aspect ratio                     : 2.40:1
Frame rate                               : 23.976 fps
Color space                              : YUV
Chroma subsampling                       : 4:2:0
Bit depth                                : 8 bits
Scan type                                : Progressive
Bits/(Pixel*Frame)                       : 0.185
Stream size                              : 1.80 GiB (81%)
Writing library                          : x264 core 146 r2538 121396c
Encoding settings                        : cabac=1 / ref=12 / deblock=1:-3:-3 / analyse=0x3:0x113 / me=umh / subme=11 / psy=1 / psy_rd=1.00:0.00 / mixed_ref=1 / me_range=48 / chroma_me=1 / trellis=2 / 8x8dct=1 / cqm=0 / deadzone=21,11 / fast_pskip=0 / chroma_qp_offset=-2 / threads=12 / lookahead_threads=3 / sliced_threads=0 / nr=0 / decimate=1 / interlaced=0 / bluray_compat=0 / constrained_intra=0 / bframes=13 / b_pyramid=2 / b_adapt=2 / b_bias=0 / direct=3 / weightb=1 / open_gop=0 / weightp=2 / keyint=240 / keyint_min=23 / scenecut=40 / intra_refresh=0 / rc_lookahead=40 / rc=2pass / mbtree=1 / bitrate=1930 / ratetol=1.0 / qcomp=0.60 / qpmin=0 / qpmax=69 / qpstep=4 / cplxblur=20.0 / qblur=0.5 / vbv_maxrate=14000 / vbv_bufsize=14000 / nal_hrd=none / filler=0 / ip_ratio=1.40 / aq=1:1.00
Language                                 : English
Default                                  : Yes
Forced                                   : No

Audio
ID                                       : 2
Format                                   : AC-3
Format/Info                              : Audio Coding 3
Mode extension                           : CM (complete main)
Codec ID                                 : A_AC3
Duration                                 : 2h 16mn
Bit rate mode                            : Constant
Bit rate                                 : 384 Kbps
Channel(s)                               : 6 channels
Channel positions                        : Front: L C R, Side: L R, LFE
Sampling rate                            : 48.0 KHz
Bit depth                                : 16 bits
Compression mode                         : Lossy
Stream size                              : 376 MiB (17%)
Default                                  : Yes
Forced                                   : No






Скачать Голодные игры: Сойка-пересмешница. Часть II через торрент https://pic1.kartinco.top/images/10/ejpqs.jpg Скачать, смотреть онлайн Голодные игры: Сойка-пересмешница. Часть II бесплантно в хорошем качестве Описание: В Панеме начинается гражданская война против власти Капитолия. Китнисс Эвердин является символом Революции, однако сама себя не ... 8.6 10 25
Info! Золотая раздача, скачанное не засчитывается.
Торрент: Зарегистрирован [2016-03-21 19:54] · скачан: 1 118 раз
Статус: √ проверено
Размер: 2.21 GB
Как cкачать? Как скачать Голодные игры: Сойка-пересмешница. Часть II через торрент | UTorrent

28-11-2019 20:33  

Отключить вcю реклaмy на сайте

21-03-2016 21:14 Голодные игры: Сойка-пересмешница. Часть II Скачать торрент  

Alexandr7 писал(а):

Смотреть нельзя!!!!!!!!

Все можно но нестоит!



28-03-2016 16:13 Голодные игры: Сойка-пересмешница. Часть II Скачать торрент  

bober100 писал(а):

Alexandr7 писал(а):

Смотреть нельзя!!!!!!!!

Все можно но нестоит!

Кошерные отзывы от грамотеев )



    Дорогой пользователь! Огромная просьба, поблагодарите релизера, оцените раздачу и оставьте свои комментарий, если Вы скачали Голодные игры: Сойка-пересмешница. Часть II через торрент бесплатно!!
    Комментировать посты могут только пользователи прошедшие не сложную регистрацию
    Показать сообщения:    


    Голодные игры: Сойка-пересмешница. Часть II через торрент
    Скачать бесплатно Голодные игры: Сойка-пересмешница. Часть II
    Голодные игры: Сойка-пересмешница. Часть II скачать торрент
    Голодные игры: Сойка-пересмешница. Часть II смотреть онлайн
    Cкачать фильм Голодные игры: Сойка-пересмешница. Часть II бесплатно
    Голодные игры: Сойка-пересмешница. Часть II скачать торрент в хорошем качестве
    Голодные игры: Сойка-пересмешница. Часть II смотреть онлайн бесплатно в хорошем качестве
    Вы не можете начинать темы
    Вы не можете отвечать на сообщения
    Вы не можете редактировать свои сообщения
    Вы не можете удалять свои сообщения
    Вы не можете голосовать в опросах
    Вы не можете прикреплять файлы к сообщениям
    Вы можете скачивать файлы