MEGA SALE -50% FORZA HORIZON 4 ULTIMATE+ВСЕ DLC+ОНЛАЙН всего за 599р. 299 руб. (супер цена). Внимание количество ограничено!!!

iTunes

1+1

iTunes

мы

iTunes

1

iTunes

Чернобыль

iTunes

Ральф против интернета

Лицензия

ПШазам

Лицензия

Игра престолов

Лицензия

30
pack

ВАЖНО

!!Акция!!

Alien_RageХит недели

RePack

Resident Evil 21

ИГРА 18+

pack

RePack

Metro:Exodus

!!Акция!!

Alien_Rage

RePack

fifa19

RePack

Assassins Creed: Odyssey

RePack

NEED FOR SPEED™ PAYBACK

3 сезон

9 сезон

Бесстыжие 9 сезон

Все сериалы

все сериалы на PB.wtf

RePack

FAR CRY 5
Ребята, катастрофически не хватает 7730р. для оплаты серверов за АВГУСТ (всвязи с блокировками трафик упал в 3 раза), 1-2р., выручайте.
  

Ангар 18 / Hangar 18 (Джеймс Л. Конуэй / James L. Conway) [1980, США, фантастика, боевик, триллер, биография, BDRip by keeper.52] DUB pb.wtf

Ангар 18 через торрент pb.wtf

Раздают: 1 [ 64 KB/s ]
Размер: 1.46 GB | Добавлен: 3 года 5 мес. назад | Торрент скачан:41 раз
Скачать  

22-03-2016 05:44 Ангар 18 Скачать торрент  

Ангар 18 / Hangar 18«It started with an accident in space . . . and led to the terrifying secret in . . . HANGAR 18»
Страна: США / Sunn Classic Pictures Inc.
Жанр: фантастика, боевик, триллер, биография
Год выпуска: 1980
Продолжительность: 01:37:30

Перевод: Профессиональный (дублированный) - Советский дубляж (со вставками двухголосого закадрового)

Cубтитры: нет
Оригинальная аудиодорожка: нет

Режиссер: Джеймс Л. Конуэй / James L. Conway

В ролях: Гари Коллинз, Роберт Вон, Джеймс Хэмптон, Филип Эбботт, Джозеф Кампанелла, Памела Беллвуд, Том Хэллик, Стивен Китс, Уильям Шэллерт, Дэррен МакГэвин...

Роли дублировали: Игорь Окрепилов, Александр Демьяненко, Вячеслав Захаров, Юрий Дедович, Владимир Татосов...

Описание: Во время запуска спутника с космического челнока NASA происходит катастрофа, в результате которой погибает один из астронавтов. Как потом выясняется, причиной взрыва становится столкновение спутника с НЛО. Неопознанный объект совершает аварийную посадку на Земле и попадает в руки спецслужб правительства. Небольшая группа военных и политиков, опасающихся ненужной и рискованной шумихи вокруг этого ЧП накануне президентских выборов, делают все, чтобы сохранить происшествие в тайне. Вернувшихся на землю астронавтов изолируют, а НЛО отправляют для исследований на военную базу и прячут в ангаре под №18. Но друзья погибшего астронавта пытаются узнать правду о загадочном объекте, встреченном на орбите, и не хотят сидеть сложа руки, и предпринимают собственное и весьма рискованное расследование...
В 80-х годах этот фильм демонстрировался в кинотеатрах по всему СССР и снискал большую популярность у зрителей.

Качество: BDRip / Blu-ray 1080p
Формат: AVI

Видео: 720x400 (16:9), 23.976 fps, XviD ~ 1937 kbps avg, 0.281 bit/pixel
Аудио: 48 kHz, Dolby AC3, 2 ch, 192 kbps, русский дублированный

Раздача от:
Общее
Полное имя : Angar.18.1980.D.BDRip.1.46GB_[New-Team]_by_avproh.avi
Формат : AVI
Формат/Информация : Audio Video Interleave
Размер файла : 1,46 Гбайт
Продолжительность : 1 ч. 37 м.
Общий поток : 2139 Кбит/сек
Программа кодирования : VirtualDubModRus 1.5.10.2 (build 2542/release)
Библиотека кодирования : VirtualDubMod build 2542/release

Видео
Идентификатор : 0
Формат : MPEG-4 Visual
Профиль формата : Advanced Simple@L5
Параметр BVOP формата : 1
Параметр QPel формата : Нет
Параметр GMC формата : Без точки перехода
Параметр матрицы формата : Выборочная
Идентификатор кодека : XVID
Идентификатор кодека/Подсказка : XviD
Продолжительность : 1 ч. 37 м.
Битрейт : 1937 Кбит/сек
Ширина : 720 пикселей
Высота : 400 пикселей
Соотношение сторон : 16:9
Частота кадров : 23,976 кадра/сек
Цветовое пространство : YUV
Субдискретизация насыщенности : 4:2:0
Битовая глубина : 8 бит
Тип развёртки : Прогрессивная
Метод сжатия : С потерями
Бит/(Пиксели*Кадры) : 0.281
Размер потока : 1,32 Гбайт (91%)
Библиотека кодирования : XviD 73

Аудио
Идентификатор : 1
Формат : AC-3
Формат/Информация : Audio Coding 3
Расширение режима : CM (complete main)
Параметр Endianness формата : Big
Идентификатор кодека : 2000
Продолжительность : 1 ч. 37 м.
Вид битрейта : Постоянный
Битрейт : 192 Кбит/сек
Каналы : 2 канала
Расположение каналов : Front: L R
Частота : 48,0 КГц
Битовая глубина : 16 бит
Метод сжатия : С потерями
Размер потока : 134 Мбайт (9%)
Выравнивание : Разделение по промежуткам
Продолжительность промежутка : 42 мс. (1,00 видеокадр)
Время предзагрузки промежутка : 500 мс.
pb.wtf



Скачать Ангар 18 через торрент http://i59.fastpic.ru/big/2014/0215/59/d38b0f8645c2018e356a02573be42159.png Скачать фильм Ангар 18 через торрент бесплантно в хорошем качестве Описание: Во время запуска спутника с космического челнока NASA происходит катастрофа, в результате которой погибает один из астронавтов. ... 10 10 3
Info! Золотая раздача, скачанное не засчитывается.
Торрент: Зарегистрирован [2016-03-22 06:20] · скачан: 41 раз
Статус: √ проверено
Размер: 1.46 GB
Как cкачать? Как скачать Ангар 18 через торрент | qTorrent

% Раздел Тема Автор DL S | L
Фильмы [HD 720p, 1080p] (Хороший звук DUB, MVO) [ 4.62 GB ] Ангар 18 / Hangar 18 [1980 биография BDRip 720p by keeper.52] DUB + DVO + AVO + Original keeper.52 Скачать
2 | 0
Фильмы до 2000 г. [ 1.46 GB ] Ангар 18 / Hangar 18 [1980 биография BDRip-AVC by keeper.52] DUB keeper.52 Скачать
2 | 0
Фильмы до 2000 г. [ 2.17 GB ] Ангар 18 / Hangar 18 [1980 биография BDRip-AVC by keeper.52] DUB + DVO + AVO + Original keeper.52 Скачать
2 | 0
Фильмы до 2000 г. [ 745 MB ] Ангар 18 / Hangar 18 [1980 биография BDRip by keeper.52] DUB keeper.52 Скачать
2 | 0
Фильмы [HD 720p, 1080p] (Хороший звук DUB, MVO) [ 8.25 GB ] Ангар 18 / Hangar 18 [1980 биография BDRip 1080p by keeper.52] DUB + DVO + AVO + Original keeper.52 Скачать
2 | 0
Фильмы (Blu-ray, BD-Remux, HDDVD) [ 19.49 GB ] Ангар 18 / Hangar 18 [1980 биография BDRemux 1080p by keeper.52] DUB + DVO + AVO + Original keeper.52 Скачать
2 | 0
Фильмы до 2000 г. [ 2.18 GB ] Ангар 18 / Hangar 18 [1980 биография BDRip by keeper.52] DUB + DVO + AVO + Original keeper.52 Скачать
2 | 0


>> Регистрируемся здесь <<






Отзывы и комментарии о схеме читаем и пишем здесь: ---> Отзывы и комментарии о схеме

Новые благодарочки в телеграм довольных пользователей:
скриншот   скриншот   скриншот   скриншот   скриншот
    Дорогой пользователь! Огромная просьба, поблагодарите релизера, оцените раздачу и оставьте свои комментарий, если Вы скачали Ангар 18 через торрент бесплатно! Внесите свою лепту в развитие PiratBit!
    Комментировать посты могут только пользователи прошедшие не сложную регистрацию
    Показать сообщения:    

    Ангар 18 через торрент
    Скачать бесплатно Ангар 18
    Ангар 18 скачать торрент
    Ангар 18 смотреть онлайн
    Cкачать фильм Ангар 18 бесплатно
    Ангар 18 скачать торрент в хорошем качестве
    Ангар 18 смотреть онлайн бесплатно в хорошем качестве


    Вы не можете начинать темы
    Вы не можете отвечать на сообщения
    Вы не можете редактировать свои сообщения
    Вы не можете удалять свои сообщения
    Вы не можете голосовать в опросах
    Вы не можете прикреплять файлы к сообщениям
    Вы можете скачивать файлы