Доктор Стрэндж

Лицензия

Добыча

Дубляж

Уэнсдэй

1 сезон

Тор

Дубляж

В эфире

Дубляж

Там, где раки поют

MVO

Властелин колец

1 сезон

Deluxe

pack

Рекомендуем

30

Пиратка

ВАЖНО

ВАЖНО

Ghostwire

Пиратка

jed

RePack

nioh2

RePack

RDR2

RePack

NEED FOR SPEED™ PAYBACK

RePack

скачать торрент

Кинопоиск HD

Острые козырьки 6 сезон

6 сезон

FAR CRY 6

RePack

скачать торрент

Лицензия

скачать торрент

MVO

1

1 сезон

скачать торрент

1 сезон

скачать торрент

Лицензия

  

Ангар 18 / Hangar 18 (Джеймс Л. Конуэй / James L. Conway) [1980, США, фантастика, боевик, триллер, биография, BDRemux 1080p by keeper.52] Дубляж + DVO + AVO + Original (eng)

Ангар 18 через торрент pb.wtf

Размер: 19.49 GB | Добавлен: 6 лет 8 мес. назад | Торрент скачан:17 раз
Смотреть онлайн | Скачать   

22-03-2016 06:46 Ангар 18 Скачать торрент  

Ангар 18 / Hangar 18«It started with an accident in space . . . and led to the terrifying secret in . . . HANGAR 18»
Страна: США / Sunn Classic Pictures Inc.
Жанр: фантастика, боевик, триллер, биография
Год выпуска: 1980
Продолжительность: 01:37:30

Перевод:
Профессиональный (дублированный) - Советский дубляж (со вставками двухголосого закадрового)
Профессиональный (двухголосый, закадровый): НТВ+
Авторский (одноголосый): Юрий Сербин

Cубтитры: нет
Оригинальная аудиодорожка: английский

Режиссер: Джеймс Л. Конуэй / James L. Conway

В ролях: Гари Коллинз, Роберт Вон, Джеймс Хэмптон, Филип Эбботт, Джозеф Кампанелла, Памела Беллвуд, Том Хэллик, Стивен Китс, Уильям Шэллерт, Дэррен МакГэвин...

Роли дублировали: Игорь Окрепилов, Александр Демьяненко, Вячеслав Захаров, Юрий Дедович, Владимир Татосов...

Описание: Во время запуска спутника с космического челнока NASA происходит катастрофа, в результате которой погибает один из астронавтов. Как потом выясняется, причиной взрыва становится столкновение спутника с НЛО. Неопознанный объект совершает аварийную посадку на Земле и попадает в руки спецслужб правительства. Небольшая группа военных и политиков, опасающихся ненужной и рискованной шумихи вокруг этого ЧП накануне президентских выборов, делают все, чтобы сохранить происшествие в тайне. Вернувшихся на землю астронавтов изолируют, а НЛО отправляют для исследований на военную базу и прячут в ангаре под №18. Но друзья погибшего астронавта пытаются узнать правду о загадочном объекте, встреченном на орбите, и не хотят сидеть сложа руки, и предпринимают собственное и весьма рискованное расследование...
В 80-х годах этот фильм демонстрировался в кинотеатрах по всему СССР и снискал большую популярность у зрителей.

Качество: BDRemux 1080p / Blu-ray 1080p
Формат: MKV

Видео: 1920x1080, MPEG-4 AVC Video 26984 kbps 1080p / 23,976 fps / 16:9 / High Profile 4.1
Аудио 1: 48 kHz, Dolby AC3, 2 ch, 192 kbps, русский дублированный
Аудио 2: 48 kHz, Dolby AC3, 2 ch, 192 kbps, русский двухголосый
Аудио 3: 48 kHz, Dolby AC3, 2 ch, 192 kbps, русский авторский
Аудио 4: DTS-HD Master Audio English 869 kbps 1.0 / 48 kHz / 869 kbps / 16-bit (DTS Core: 1.0 / 48 kHz / 768 kbps / 16-bit), английский
Аудио 5: 48 kHz, Dolby AC3, 2 ch, 192 kbps, английский

Дополнительно: Фильм разбит на главы, как на оригинальном Blu-ray диске

Раздача от:
Общее
Формат : Matroska
Версия формата : Version 4 / Version 2
Размер файла : 19,5 Гбайт
Продолжительность : 1 ч. 37 м.
Режим общего битрейта : Переменный
Общий поток : 28,6 Мбит/сек
Дата кодирования : UTC 2014-02-14 20:52:12
Программа кодирования : mkvmerge v6.7.0 ('Back to the Ground') 64bit built on Jan 8 2014 15:10:52
Библиотека кодирования : libebml v1.3.0 + libmatroska v1.4.1

Видео
Идентификатор : 1
Формат : AVC
Формат/Информация : Advanced Video Codec
Профиль формата : [email protected]
Параметр CABAC формата : Да
Параметр ReFrames формата : 4 кадра
Параметр GOP формата : M=3, N=24
Идентификатор кодека : V_MPEG4/ISO/AVC
Продолжительность : 1 ч. 37 м.
Вид битрейта : Переменный
Максимальный битрейт : 33,5 Мбит/сек
Ширина : 1920 пикселей
Высота : 1080 пикселей
Соотношение сторон : 16:9
Режим частоты кадров : Постоянный
Частота кадров : 23,976 кадра/сек
Стандарт вещания : NTSC
Цветовое пространство : YUV
Субдискретизация насыщенности : 4:2:0
Битовая глубина : 8 бит
Тип развёртки : Прогрессивная
Язык : English
Default : Да
Forced : Нет
Основные цвета : BT.709
Характеристики трансфера : BT.709
Коэффициенты матрицы : BT.709

Аудио #1
Идентификатор : 2
Формат : AC-3
Формат/Информация : Audio Coding 3
Расширение режима : CM (complete main)
Параметр Endianness формата : Big
Идентификатор кодека : A_AC3
Продолжительность : 1 ч. 37 м.
Вид битрейта : Постоянный
Битрейт : 192 Кбит/сек
Каналы : 2 канала
Расположение каналов : Front: L R
Частота : 48,0 КГц
Битовая глубина : 16 бит
Метод сжатия : С потерями
Размер потока : 134 Мбайт (1%)
Заголовок : Дубляж
Язык : Russian
Default : Да
Forced : Нет

Аудио #2
Идентификатор : 3
Формат : AC-3
Формат/Информация : Audio Coding 3
Расширение режима : CM (complete main)
Параметр Endianness формата : Big
Идентификатор кодека : A_AC3
Продолжительность : 1 ч. 37 м.
Вид битрейта : Постоянный
Битрейт : 192 Кбит/сек
Каналы : 2 канала
Расположение каналов : Front: L R
Частота : 48,0 КГц
Битовая глубина : 16 бит
Метод сжатия : С потерями
Размер потока : 134 Мбайт (1%)
Заголовок : DVO NTV+
Язык : Russian
Default : Нет
Forced : Нет

Аудио #3
Идентификатор : 4
Формат : AC-3
Формат/Информация : Audio Coding 3
Расширение режима : CM (complete main)
Параметр Endianness формата : Big
Идентификатор кодека : A_AC3
Продолжительность : 1 ч. 37 м.
Вид битрейта : Постоянный
Битрейт : 192 Кбит/сек
Каналы : 2 канала
Расположение каналов : Front: L R
Частота : 48,0 КГц
Битовая глубина : 16 бит
Метод сжатия : С потерями
Размер потока : 134 Мбайт (1%)
Заголовок : AVO Serbin
Язык : Russian
Default : Нет
Forced : Нет

Аудио #4
Идентификатор : 5
Формат : DTS
Формат/Информация : Digital Theater Systems
Профиль формата : MA / Core
Режим : 16
Параметр Endianness формата : Big
Идентификатор кодека : A_DTS
Продолжительность : 1 ч. 37 м.
Вид битрейта : Переменный
Битрейт : Неизвестно / 768 Кбит/сек
Каналы : 1 канал
Расположение каналов : Front: C
Частота : 48,0 КГц
Битовая глубина : 16 бит
Метод сжатия : Без потерь / Lossy
Язык : English
Default : Нет
Forced : Нет

Аудио #5
Идентификатор : 6
Формат : AC-3
Формат/Информация : Audio Coding 3
Расширение режима : CM (complete main)
Параметр Endianness формата : Big
Идентификатор кодека : A_AC3
Продолжительность : 1 ч. 37 м.
Вид битрейта : Постоянный
Битрейт : 192 Кбит/сек
Каналы : 2 канала
Расположение каналов : Front: L R
Частота : 48,0 КГц
Битовая глубина : 16 бит
Метод сжатия : С потерями
Размер потока : 134 Мбайт (1%)
Язык : English
Default : Нет
Forced : Нет

Меню
00:00:00.000 : en:00:00:00.000
00:09:18.475 : en:00:09:18.475
00:22:47.199 : en:00:22:47.199
00:36:22.555 : en:00:36:22.555
00:45:44.408 : en:00:45:44.408
01:00:58.780 : en:01:00:58.780
01:10:01.406 : en:01:10:01.406
01:17:40.739 : en:01:17:40.739



Скачать Ангар 18 через торрент http://i59.fastpic.ru/big/2014/0215/59/d38b0f8645c2018e356a02573be42159.png Скачать, смотреть онлайн Ангар 18 бесплантно в хорошем качестве Описание: Во время запуска спутника с космического челнока NASA происходит катастрофа, в результате которой погибает один из астронавтов. ... 10 10 3
Info! Золотая раздача, скачанное не засчитывается.
Торрент: Зарегистрирован [2016-03-22 06:46] · скачан: 17 раз
Статус: √ проверено
Размер: 19.49 GB
Как cкачать? Как скачать Ангар 18 через торрент | UTorrent

% Раздел Тема Автор DL S | L
Фильмы [HD 720p, 1080p] (Хороший звук DUB, MVO) [ 4.62 GB ] Ангар 18 / Hangar 18 | DUB + DVO + AVO + Original | 720p by keeper.52 keeper.52 Скачать
2 | 0
Фильмы до 2000 г. [ 1.46 GB ] Ангар 18 / Hangar 18 | DUB | BDRip-AVC by keeper.52 keeper.52 Скачать
1 | 0
Фильмы до 2000 г. [ 2.17 GB ] Ангар 18 / Hangar 18 | DUB + DVO + AVO + Original | BDRip-AVC by keeper.52 keeper.52 Скачать
1 | 0
Фильмы до 2000 г. [ 745 MB ] Ангар 18 / Hangar 18 | DUB | BDRip by keeper.52 keeper.52 Скачать
1 | 0
Фильмы [HD 720p, 1080p] (Хороший звук DUB, MVO) [ 8.25 GB ] Ангар 18 / Hangar 18 | DUB + DVO + AVO + Original | 1080p by keeper.52 keeper.52 Скачать
1 | 0
Фильмы до 2000 г. [ 2.18 GB ] Ангар 18 / Hangar 18 | DUB + DVO + AVO + Original | BDRip by keeper.52 keeper.52 Скачать
1 | 0
Фильмы до 2000 г. [ 1.46 GB ] Ангар 18 / Hangar 18 | DUB | BDRip by keeper.52 keeper.52 Скачать
1 | 0

28-11-2019 20:33  


Отключить вcю реклaмy на сайте, в т.ч. и в плеере онлайн просмотра!

    Дорогой пользователь! Огромная просьба, поблагодарите релизера, оцените раздачу и оставьте свои комментарий, если Вы скачали Ангар 18 через торрент бесплатно!!
    Комментировать посты могут только пользователи прошедшие не сложную регистрацию
    Показать сообщения:    


    Ангар 18 через торрент
    Скачать бесплатно Ангар 18
    Ангар 18 скачать торрент
    Ангар 18 смотреть онлайн
    Cкачать фильм Ангар 18 бесплатно
    Ангар 18 скачать торрент в хорошем качестве
    Ангар 18 смотреть онлайн бесплатно в хорошем качестве
    Вы не можете начинать темы
    Вы не можете отвечать на сообщения
    Вы не можете редактировать свои сообщения
    Вы не можете удалять свои сообщения
    Вы не можете голосовать в опросах
    Вы не можете прикреплять файлы к сообщениям
    Вы можете скачивать файлы
    Ангар 18 / Hangar 18 [1980, США, фантастика, боевик, триллер, биография, BDRemux 1080p by keeper.52] Дубляж + DVO + AVO + Original смотреть онлайн, скачать торрент picoco.icu