новый адрес
Мега распродажа FORZA HORIZON 4 ULTIMATE+ВСЕ DLC+ОНЛАЙН всего за 499р. 349 руб. (супер цена). Внимание количество ограничено!!!

iTunes

1+1

iTunes

мы

iTunes

1

iTunes

Чернобыль

iTunes

Ральф против интернета

Лицензия

ПШазам

Лицензия

Игра престолов

Лицензия

30
pack

ВАЖНО

!!Акция!!

Alien_RageХит недели

RePack

Resident Evil 21

ИГРА 18+

pack

RePack

Metro:Exodus

!!Акция!!

Alien_Rage

RePack

fifa19

RePack

Assassins Creed: Odyssey

RePack

NEED FOR SPEED™ PAYBACK

3 сезон

9 сезон

Бесстыжие 9 сезон

Все сериалы

все сериалы на PB.wtf

RePack

FAR CRY 5
Ребята, катастрофически не хватает 1900р. для оплаты серверов за Октябрь (всвязи с блокировками трафик упал в 3 раза), 1-2р., выручайте.
  

Вихри враждебные (Михаил Калатозов) [1953, СССР, драма, биография, DVDRip от AVP Studio] pb.wtf

Вихри враждебные через торрент pb.wtf

Размер: 1.49 GB | Добавлен: 3 года 7 мес. назад | Торрент скачан:16 раз
Скачать  

22-03-2016 07:35 Вихри враждебные Скачать торрент  

Вихри враждебные
Страна: СССР
Производство: Мосфильм

Жанр: драма, биография
Год выпуска: 1953
Продолжительность: 01:36:52

Перевод: Не требуется
Cубтитры: нет
Оригинальная аудиодорожка: русский

Режиссер: Михаил Калатозов

В ролях:
Владимир Емельянов, Михаил Кондратьев, Михаил Геловани, Леонид Любашевский, Владимир Соловьёв, Иван Любезнов, Алла Ларионова, Виктор Авдюшко, Георгий Юматов, Владимир Борискин, Игорь Безяев, Сергей Лукьянов, Сергей Ромоданов, Пётр Мухин, Андрей Попов, Николай Гриценко, Александр Хохлов, Григорий Кириллов, Олег Жаков, Антоний Ходурский, Алексей Коротюков...
Полный список актёров

Описание:
О первых годах становления Советской власти, о жизни и деятельности Ф.Дзержинского в 1918-1925 годах.
Июль 1918 года. Нпачинается левоэсеровский мятеж. Убит германский посол Мирбах. Феликс Дзержинский в одиночку отправляется в штаб левых эсеров и анархистов. Ему удаётся склонить на свою сторону простых солдат и матросов, участников мятежа. Они сами расправляются со своими главарями. Арестованы иностранные послы, организовавшие заговор, возглавленный британским посланником Локкартом.
В 1921 году партия направляет Дзержинского на борьбу с беспризорщиной. Узнав, где скрываются в Москве безспризорники по ночам, Дзержинский один отправлялся в их притон и быстро и легко овладевал доверием ребят. Уже после десятиминутного разговора эти дети голода и лишений, войны и разрухи, приученные своей жизнью к чему угодно, только не к доверчивости, устремлялись за Дзержинским к зданию ВЧК. Правда, до дверей доходили не все, но уж те, кто оставался, немедленно и прочно вступали на верную дорогу и приводили на неё остальных.
1925 год. Бывшие беспризорники, закончив учёбу, отправляются на строительство Югостали, крупнейшего промышленного комбината на Украине. В руководство предприятия пробрались враги, они всячески тормозят строительство...
Фильм закончили уже после смерти Сталина и положили на полку. В 1956 году картину перемонтировали. Из неё изъяли сцену, в которой комсомольцев, уезжающих работать на Югосталь, напутствует Сталин. Сталина заменили Дзержинским. Но получилась маленькая накладка. Такого всеобщего порыва, как показано в фильме, Дзержинский, конечно, вызывать не мог. Об этом случае вспоминала актриса Алла Ларионова.

Источник: DVD9 R5
Качество видео: DVDRip
Формат видео: AVI

Видео: 688x512 (4:3), 25 fps, XviD ~ 1998 kbps avg, 0.227 bit/pixel
Аудио: 48 kHz, Dolby Digital AC3 2.0, 192 kbps

Раздача от:
Общее
Полное имя : Vihri.vrazhdebnye.1953.DVDRip_[New-team]_by_AVP_Studio.avi
Формат : AVI
Формат/Информация : Audio Video Interleave
Размер файла : 1,49 Гбайт
Продолжительность : 1 ч. 36 м.
Общий поток : 2199 Кбит/сек
Программа кодирования : VirtualDubMod 1.5.10.3 | www.virtualdub-fr.org || (build 2550/release)
Библиотека кодирования : VirtualDubMod build 2550/release

Видео
Идентификатор : 0
Формат : MPEG-4 Visual
Профиль формата : Advanced Simple@L5
Параметр BVOP формата : 1
Параметр QPel формата : Нет
Параметр GMC формата : Без точки перехода
Параметр матрицы формата : Выборочная
Идентификатор кодека : XVID
Идентификатор кодека/Подсказка : XviD
Продолжительность : 1 ч. 36 м.
Битрейт : 1998 Кбит/сек
Ширина : 688 пикселей
Высота : 512 пикселей
Соотношение сторон : 4:3
Частота кадров : 25,000 кадров/сек
Цветовое пространство : YUV
Субдискретизация насыщенности : 4:2:0
Битовая глубина : 8 бит
Тип развёртки : Прогрессивная
Метод сжатия : С потерями
Бит/(Пиксели*Кадры) : 0.227
Размер потока : 1,35 Гбайт (91%)
Библиотека кодирования : XviD 1.2.1 (UTC 2008-12-04)

Аудио
Идентификатор : 1
Формат : AC-3
Формат/Информация : Audio Coding 3
Расширение режима : CM (complete main)
Параметр Endianness формата : Big
Идентификатор кодека : 2000
Продолжительность : 1 ч. 36 м.
Вид битрейта : Постоянный
Битрейт : 192 Кбит/сек
Каналы : 2 канала
Расположение каналов : Front: L R
Частота : 48,0 КГц
Частота кадров : 31,250 кадров/сек (1536 spf)
Метод сжатия : С потерями
Размер потока : 133 Мбайт (9%)
Выравнивание : Разделение по промежуткам
Продолжительность промежутка : 40 мс. (1,00 видеокадр)
Время предзагрузки промежутка : 500 мс
pb.wtf



Скачать Вихри враждебные через торрент http://s019.radikal.ru/i627/1603/15/c27e43899642.png Скачать фильм Вихри враждебные через торрент бесплантно в хорошем качестве Описание:О первых годах становления Советской власти, о жизни и деятельности Ф.Дзержинского в 1918-1925 годах.Июль 1918 года. Нпачинается ... 10 10 2
Info! Золотая раздача, скачанное не засчитывается.
Торрент: Зарегистрирован [2016-03-22 07:35] · скачан: 16 раз
Статус: √ проверено
Размер: 1.49 GB
Как cкачать? Как скачать Вихри враждебные через торрент | qTorrent

% Раздел Тема Автор DL S | L
Кино СССР [ 1.46 GB ] Вихри враждебные [1953 СССР биография DVDRip-AVC от AVP Studio] AVP Studio Скачать
1 | 0
Кино СССР [ 744 MB ] Вихри враждебные [1953 СССР биография DVDRip от AVP Studio] AVP Studio Скачать
1 | 0


>> Регистрируемся здесь <<






Отзывы и комментарии о схеме читаем и пишем здесь: ---> Отзывы и комментарии о схеме

Новые благодарочки в телеграм довольных пользователей:
скриншот   скриншот   скриншот   скриншот   скриншот
    Дорогой пользователь! Огромная просьба, поблагодарите релизера, оцените раздачу и оставьте свои комментарий, если Вы скачали Вихри враждебные через торрент бесплатно! Внесите свою лепту в развитие PiratBit!
    Комментировать посты могут только пользователи прошедшие не сложную регистрацию
    Показать сообщения:    

    Вихри враждебные через торрент
    Скачать бесплатно Вихри враждебные
    Вихри враждебные скачать торрент
    Вихри враждебные смотреть онлайн
    Cкачать фильм Вихри враждебные бесплатно
    Вихри враждебные скачать торрент в хорошем качестве
    Вихри враждебные смотреть онлайн бесплатно в хорошем качестве


    Вы не можете начинать темы
    Вы не можете отвечать на сообщения
    Вы не можете редактировать свои сообщения
    Вы не можете удалять свои сообщения
    Вы не можете голосовать в опросах
    Вы не можете прикреплять файлы к сообщениям
    Вы можете скачивать файлы