Присоединяйтесь к нам в Telegram!, здесь всегда актуальный адрес сайта, оперативная поддержка и многое другое!!

>

5.9

iTunes

7.4

iTunes

9.4

1 сезон

1

7.4

2 сезон

7.2

iTunes

7.3

1 сезон

13

6.1

iTunes

8.3

GOG

30

ULTIMATE

pack

9.9

Лицензия

ВАЖНО

ИГРА 18+

pack

7.3

RePack

MK11

7.7

RePack

jed

7.8

RePack

fifa19

8.5

RePack

RDR2

RePack

NEED FOR SPEED™ PAYBACK

5 сезон

9 сезон

Бесстыжие 9 сезон

Все сериалы

все сериалы на PB.wtf

RePack

FAR CRY 5

Anonymous, доброй ночи, мы катастрофически не успеваем собрать деньги на оплату серверов, помогите нам пожалуйста 5,10,15р., для нас важна любая помощь . В качестве благодарности мы отключим Вам всю рекламу на сайте (укажите свой ник в строку Ваше имя)!

×
  
Magnet ссылка

Mylene Farmer - City Of Love [2015 г., Pop, MasterRip 1080p] pb.wtf

Mylene Farmer - City Of Love через торрент pb.wtf

Размер: 389 MB | Добавлен: 5 лет 8 мес. назад | Торрент скачан:55 раз
Смотреть онлайн Mylene Farmer - City Of Love | Скачать    Ребята, помогите собрать деньги на оплату серверов!!!

22-03-2016 08:51 Mylene Farmer - City Of Love Скачать торрент  

Mylene Farmer - City Of Love
Год выпуска: 2015
Жанр: Pop
Продолжительность: 00:05:12
Качество:MasterRip 1080p
Формат: MPEG4
Видео кодек: AVC
Аудио кодек:AAC
Видео: MPEG4 AVC, 1920x1080, 25,000 fps, 10,1 Mbit / s
Аудио#1: AAC 48,0 kHz, 2 ch, 320 kbps
Прекрасная французская исполнительница Милен Фармер (Mylene Farmer) в очередной раз приятно удивила своих поклонников, представив клип к композиции City Of Love. За некоторое время до премьеры певица заинтриговала публику выходом весьма необычного тизера. Милая и нежная Милен готовила для зрителей настоящий фильм ужасов.
Общее
Полное имя : Mylene Farmer - City Of Love.mp4
Формат : MPEG-4
Профиль формата : QuickTime
Идентификатор кодека : qt
Размер файла : 389 Мбайт
Продолжительность : 5 м. 12 с.
Режим общего битрейта : Переменный
Общий поток : 10,4 Мбит/сек

Видео
Идентификатор : 1
Формат : AVC
Формат/Информация : Advanced Video Codec
Профиль формата : High@L4.2
Параметр CABAC формата : Да
Параметр ReFrames формата : 2 кадра
Идентификатор кодека : avc1
Идентификатор кодека/Информация : Advanced Video Coding
Продолжительность : 5 м. 12 с.
Продолжительность оригинала : 5 м. 12 с.
Битрейт : 10,1 Мбит/сек
Ширина : 1920 пикселей
Высота : 1080 пикселей
Соотношение сторон : 16:9
Режим частоты кадров : Постоянный
Частота кадров : 25,000 кадров/сек
Стандарт вещания : PAL
Цветовое пространство : YUV
Субдискретизация насыщенности : 4:2:0
Битовая глубина : 8 бит
Тип развёртки : Прогрессивная
Бит/(Пиксели*Кадры) : 0.195
Размер потока : 376 Мбайт (97%)
Размер потока оригинала : 376 Мбайт (97%)
Язык : English
mdhd_Duration : 312480
Основные цвета : BT.709
Характеристики трансфера : BT.709
Коэффициенты матрицы : BT.709

Аудио
Идентификатор : 2
Формат : AAC
Формат/Информация : Advanced Audio Codec
Профиль формата : LC
Идентификатор кодека : 40
Продолжительность : 5 м. 11 с.
Продолжительность оригинала : 5 м. 11 с.
Вид битрейта : Переменный
Битрейт : 320 Кбит/сек
Каналы : 2 канала
Расположение каналов : Front: L R
Частота : 48,0 КГц
Метод сжатия : С потерями
Размер потока : 11,9 Мбайт (3%)
Размер потока оригинала : 11,9 Мбайт (3%)
Язык : English
mdhd_Duration : 311253
pb.wtf



Скачать Mylene Farmer - City Of Love через торрент http://s019.radikal.ru/i644/1603/51/22c1c3b646b0.jpg Скачать, смотреть онлайн Mylene Farmer - City Of Love [2015 г., Pop, MasterRip 1080p] бесплантно в хорошем качестве Год выпуска: 2015Жанр: PopПродолжительность: ... 10 10 4
Торрент: Зарегистрирован [2016-03-22 08:51] · скачан: 55 раз
Статус: √ проверено
Размер: 389 MB
Как cкачать? Как скачать Mylene Farmer - City Of Love через торрент | UTorrent

28-11-2019 20:33  

Отключить всю рекламу на сайте

    Дорогой пользователь! Огромная просьба, поблагодарите релизера, оцените раздачу и оставьте свои комментарий, если Вы скачали Mylene Farmer - City Of Love через торрент бесплатно!
    Комментировать посты могут только пользователи прошедшие не сложную регистрацию
    Показать сообщения:    

    Mylene Farmer - City Of Love через торрент
    Скачать бесплатно Mylene Farmer - City Of Love
    Mylene Farmer - City Of Love скачать торрент
    Mylene Farmer - City Of Love смотреть онлайн
    Cкачать фильм Mylene Farmer - City Of Love бесплатно
    Mylene Farmer - City Of Love скачать торрент в хорошем качестве
    Mylene Farmer - City Of Love смотреть онлайн бесплатно в хорошем качестве


    Вы не можете начинать темы
    Вы не можете отвечать на сообщения
    Вы не можете редактировать свои сообщения
    Вы не можете удалять свои сообщения
    Вы не можете голосовать в опросах
    Вы не можете прикреплять файлы к сообщениям
    Вы можете скачивать файлы