2 сезон

iTunes

1 сезон

1

iTunes

iTunes

iTunes

1 сезон

RePack

30

ИГРА 18+

pack

ВАЖНО

!!Акция!!

Alien_RageХит недели

RePack

MK11
pack

Забери бонус

RePack

jed

!!Акция!!

Alien_Rage

RePack

fifa19

RePack

Assassins Creed: Odyssey

RePack

NEED FOR SPEED™ PAYBACK

4 сезон

9 сезон

Бесстыжие 9 сезон

Все сериалы

все сериалы на PB.wtf

RePack

FAR CRY 5
  

Ледниковый Период: Погоня за яйцами / Ice Age: The Great Egg-Scapade (Рикардо Кертис) [2016, мультфильм, WEB DLRip-AVC] [iTunes] pb.wtf

Ледниковый Период: Погоня за яйцами через торрент pb.wtf

Размер: 1.46 GB | Добавлен: 4 года 7 мес. назад | Торрент скачан:2263 раза
Скачать  

22-03-2016 10:18 Ледниковый Период: Погоня за яйцами Скачать торрент  


Год выпуска » 2016
Страна » США / Blue Sky Studios
Жанр » Мультфильм, комедия
Продолжительность » 01:13:49
Перевод » Дублированный • iTunes
Субтитры » Отсутствуют

В ролях
» Блейк Андерсон, Лили Эстефан, Сет Грин, Габриэль Иглесиас, Дэнис Лири, Джон Легуизамо, Джош Пек, Куин Латифа, Рэй Романо, Шонн Уильям Скотт

Режиссёр
» Рикардо Кертис

» Скрэт, Мэнни, Сид, Диего и другие доисторические герои Ледникового Периода в совершенно новом уморительном анимационном приключении! Новый бизнес Сида по высиживанию яиц успешно развивается, но когда подлый кролик –пират Сквинт крадет яйца, Мэнни, Диего и остальные отправляются в бесстрашную спасательную операцию , которой суждено стать первой в истории погоней за яйцами.

• Качество » WEB DLRip-AVC
• Формат » MKV
• Видео кодек » AVC
• Аудио кодек » AC3
• Видео » AVC at 2 446 kb/s, 1024x574 at 23.976 fps
• Аудио » Русский (AC-3/ 6 ch / 384 kbps / 48,0 КГц / 16 bit )







Дата мировой премьеры: 20 марта 2016
Уникальный идентификатор : 170144804262510194083332190311086663844 (0x8000B284F2622D2E80E2A3331AD1A8A4)
Полное имя : P0G0Hya.3a.Jajtzamy.WEB DLRip-AVC.mkv
Формат : Matroska
Версия формата : Version 2
Размер файла : 1,46 Гбайт
Продолжительность : 1 ч. 13 м.
Общий поток : 2825 Кбит/сек
Дата кодирования : UTC 2016-03-21 08:24:01
Программа кодирования : mkvmerge v7.8.0 ('River Man') 32bit built on Apr 3 2015 12:11:22
Библиотека кодирования : libebml v1.3.1 + libmatroska v1.4.2

Видео
Идентификатор : 1
Формат : AVC
Формат/Информация : Advanced Video Codec
Профиль формата : High@L4.1
Параметр CABAC формата : Да
Параметр ReFrames формата : 8 кадров
Идентификатор кодека : V_MPEG4/ISO/AVC
Продолжительность : 1 ч. 13 м.
Битрейт : 2446 Кбит/сек
Ширина : 1024 пикселя
Высота : 574 пикселя
Соотношение сторон : 16:9
Режим частоты кадров : Постоянный
Частота кадров : 23,976 (24000/1001) кадра/сек
Частота кадров в оригинале : 23,976 (23976/1000) кадра/сек
Цветовое пространство : YUV
Субдискретизация насыщенности : 4:2:0
Битовая глубина : 8 бит
Тип развёртки : Прогрессивная
Бит/(Пиксели*Кадры) : 0.174
Размер потока : 1,23 Гбайт (84%)
Библиотека кодирования : x264 core 146 r2538 121396c
Настройки программы : cabac=1 / ref=8 / deblock=1:-2:-2 / analyse=0x3:0x113 / me=umh / subme=11 / psy=1 / psy_rd=1.00:0.20 / mixed_ref=1 / me_range=32 / chroma_me=1 / trellis=2 / 8x8dct=1 / cqm=0 / deadzone=21,11 / fast_pskip=0 / chroma_qp_offset=-3 / threads=6 / lookahead_threads=1 / sliced_threads=0 / nr=0 / decimate=0 / interlaced=0 / bluray_compat=0 / constrained_intra=0 / bframes=3 / b_pyramid=2 / b_adapt=2 / b_bias=0 / direct=3 / weightb=1 / open_gop=0 / weightp=2 / keyint=240 / keyint_min=23 / scenecut=40 / intra_refresh=0 / rc_lookahead=60 / rc=2pass / mbtree=1 / bitrate=2446 / ratetol=1.0 / qcomp=0.60 / qpmin=0 / qpmax=69 / qpstep=4 / cplxblur=20.0 / qblur=0.5 / ip_ratio=1.40 / aq=1:1.00
Default : Да
Forced : Нет

Аудио
Идентификатор : 2
Формат : AC-3
Формат/Информация : Audio Coding 3
Расширение режима : CM (complete main)
Параметр Endianness формата : Big
Идентификатор кодека : A_AC3
Продолжительность : 1 ч. 13 м.
Вид битрейта : Постоянный
Битрейт : 384 Кбит/сек
Каналы : 6 каналов
Расположение каналов : Front: L C R, Side: L R, LFE
Частота : 48,0 КГц
Частота кадров : 31,250 кадров/сек (1536 spf)
Метод сжатия : С потерями
Размер потока : 203 Мбайт (14%)
Default : Да
Forced : Нет
[/code]
скриншот   скриншот   скриншот   скриншот   скриншот   скриншот  
pb.wtf



Скачать Ледниковый Период: Погоня за яйцами через торрент http://pic1.kartinco.top/images/10/rl763.jpg Скачать фильм Ледниковый Период: Погоня за яйцами через торрент бесплантно в хорошем качестве В ролях » Блейк Андерсон, Лили Эстефан, Сет Грин, Габриэль Иглесиас, Дэнис Лири, Джон Легуизамо, Джош Пек, Куин Латифа, Рэй Романо, Шонн ... 9.6 10 51
Info! Золотая раздача, скачанное не засчитывается.
Торрент: Зарегистрирован [2016-03-22 10:18] · скачан: 2 263 раз
Статус: √ проверено
Размер: 1.46 GB
Как cкачать? Как скачать Ледниковый Период: Погоня за яйцами через торрент | qTorrent

% Раздел Тема Автор DL S | L
Зарубежные Мультфильмы (WEB-DL 720p, 1080p) [ 2.19 GB ] Ледниковый Период: Погоня за яйцами / Ice Age: The Great Egg-Scapade [2016 мультфильм WEB-DL 720p ] Ворон Скачать
1 | 0
Видео (iPhone, iPod Touch) [ 664 MB ] Ледниковый Период: Погоня за яйцами / Ice Age: The Great Egg-Scapade [2016 мультфильм WEB-DLRip 720p + Оригинал] makarevich Скачать
1 | 0
Зарубежные Мультфильмы (WEB-DL 720p, 1080p) [ 2.7 GB ] Ледниковый Период: Погоня за яйцами / Ice Age: The Great Egg-Scapade [2016 мультфильм WEB-DL 1080p ] GEKADOL Скачать
2 | 0
Иностранные мультфильмы [ 1.36 GB ] Ледниковый Период: Погоня за яйцами / Ice Age: The Great Egg-Scapade [2016 мультфильм WEB-DLRip ] Ворон Скачать
1 | 0


Последний раз редактировалось: $-DRON-$ (2016-03-22 10:49), всего редактировалось 1 раз

28-11-2019 20:33  

Отключить всю рекламу на сайте

22-03-2016 10:41 Ледниковый Период: Погоня за яйцами Скачать торрент  

Ссылка кино поиска отправляет к фильму День выборов 2.pb.wtf



22-03-2016 10:49 Ледниковый Период: Погоня за яйцами Скачать торрент  

Дитрей, Спасибо поправилpb.wtf



    Дорогой пользователь! Огромная просьба, поблагодарите релизера, оцените раздачу и оставьте свои комментарий, если Вы скачали Ледниковый Период: Погоня за яйцами через торрент бесплатно! Внесите свою лепту в развитие PiratBit!
    Комментировать посты могут только пользователи прошедшие не сложную регистрацию
    Показать сообщения:    

    Ледниковый Период: Погоня за яйцами через торрент
    Скачать бесплатно Ледниковый Период: Погоня за яйцами
    Ледниковый Период: Погоня за яйцами скачать торрент
    Ледниковый Период: Погоня за яйцами смотреть онлайн
    Cкачать фильм Ледниковый Период: Погоня за яйцами бесплатно
    Ледниковый Период: Погоня за яйцами скачать торрент в хорошем качестве
    Ледниковый Период: Погоня за яйцами смотреть онлайн бесплатно в хорошем качестве


    Вы не можете начинать темы
    Вы не можете отвечать на сообщения
    Вы не можете редактировать свои сообщения
    Вы не можете удалять свои сообщения
    Вы не можете голосовать в опросах
    Вы не можете прикреплять файлы к сообщениям
    Вы можете скачивать файлы