Ссылка на приватное зеркало нашего сайта всего за 1$. Внимание количество ограничено!!!

2 сезон

iTunes

1 сезон

1

2 сезон

2 сезон

iTunes

1 сезон

RePack

30

Ultimate

ВАЖНО

ИГРА 18+

pack

RePack

MK11
pack

Забери бонус

RePack

jed

!!Акция!!

Alien_Rage

RePack

fifa19

RePack

Assassins Creed: Odyssey

RePack

NEED FOR SPEED™ PAYBACK

4 сезон

9 сезон

Бесстыжие 9 сезон

Все сериалы

все сериалы на PB.wtf

RePack

FAR CRY 5
  

Последний закат. Возвращение / One Last Sunset Redux (Кевин Ричмонд) [2015, ужасы, DVDRip, Любительский (одноголосый) pb.wtf

Последний закат. Возвращение через торрент pb.wtf

Размер: 1.37 GB | Добавлен: 4 года 8 мес. назад | Торрент скачан:179 раз
Скачать  

22-03-2016 14:34 Последний закат. Возвращение Скачать торрент  


Последний закат. Возвращение / One Last Sunset Redux
««In the world of the dead , your best chance of survival is finding something worth dying for»»

ИНФОРМАЦИЯ:
Год выпуска:2015
Страна: США
Жанр: ужасы
Продолжительность: 01:19:23
Перевод: Любительский (одноголосый) [KypoJIecoB]
Режиссер: Кевин Ричмонд

В Ролях:


Clemeen Connolly (Diedre), Эдди Миллер (Shiela), Дахлия Леголт (Kathy), Брэнди Рени Браун (Bridgot), Альма Хилл (Nita), Патрик Грин (Curt), Тейлор-Грейс Девис (Traci), Bea Woolen (Diane), Kayona Ebony Brown (Krista), Stephanie Morgan (Lina), Daniel Sebille (Enrique), Keith Tramel (Reggie)

Описание:
Прошло пять лет после того, как человечество поразил страшный вирус, после которого большая часть населения превратилась в зомби. Оставшиеся в живых девушки Нита и Бриджит думают, что остались последними выжившими после катастрофы, не подозревая, что поблизости находится ещё одна группа переживших её, для которых каждый закат тоже может оказаться последним из-за общей опасности быть убитыми полчищами кровожадных зомби...

  • Мировая премьера:24 октября 2015

    ТЕХ.ДАННЫЕ:
    Качество: DVDRip
    Формат: AVI
    Видео: XviD, 720x400 (16:9), 2169 kbps, 23,976 fps, 0,314 bpp
    Аудио: AC3 / 2.0 / 48 kHz / 192 kbps / 16 bit


    General
    Complete name : D:\Торенты\One Last Sunset Redux2015_KypoJIecoB.avi
    Format : AVI
    Format/Info : Audio Video Interleave
    File size : 1.37 GiB
    Duration : 1h 19mn
    Overall bit rate : 2 468 Kbps
    Writing application : VirtualDubMod 1.5.10.2 (build 2540/release)
    Writing library : VirtualDubMod build 2540/release

    Video
    ID : 0
    Format : MPEG-4 Visual
    Format profile : Advanced Simple@L5
    Format settings, BVOP : 1
    Format settings, QPel : No
    Format settings, GMC : No warppoints
    Format settings, Matrix : Default (MPEG)
    Codec ID : XVID
    Codec ID/Hint : XviD
    Duration : 1h 19mn
    Bit rate : 2 169 Kbps
    Width : 720 pixels
    Height : 400 pixels
    Display aspect ratio : 16:9
    Frame rate : 23.976 fps
    Color space : YUV
    Chroma subsampling : 4:2:0
    Bit depth : 8 bits
    Scan type : Progressive
    Compression mode : Lossy
    Bits/(Pixel*Frame) : 0.314
    Stream size : 1.20 GiB (88%)
    Writing library : XviD 73

    Audio
    ID : 1
    Format : AC-3
    Format/Info : Audio Coding 3
    Mode extension : CM (complete main)
    Codec ID : 2000
    Duration : 1h 19mn
    Bit rate mode : Constant
    Bit rate : 192 Kbps
    Channel(s) : 2 channels
    Channel positions : Front: L R
    Sampling rate : 48.0 KHz
    Bit depth : 16 bits
    Compression mode : Lossy
    Stream size : 109 MiB (8%)
    Alignment : Split accross interleaves
    Скриншоты:

    © Оформление by .::Ворон::.
    pb.wtf
    !Ворон писал(а):

    Без рекламы



  • Скачать Последний закат. Возвращение через торрент http://pic.kartinco.top/images/6/ordi9.jpg Скачать фильм Последний закат. Возвращение через торрент бесплантно в хорошем качестве Описание: Прошло пять лет после того, как человечество поразил страшный вирус, после которого большая часть населения превратилась в зомби. ... 10 10 11
    Торрент: Зарегистрирован [2016-03-22 14:34] · скачан: 179 раз
    Статус: T временная
    Размер: 1.37 GB
    Как cкачать? Как скачать Последний закат. Возвращение через торрент | qTorrent

    28-11-2019 20:33  

    Отключить всю рекламу на сайте

      Дорогой пользователь! Огромная просьба, поблагодарите релизера, оцените раздачу и оставьте свои комментарий, если Вы скачали Последний закат. Возвращение через торрент бесплатно! Внесите свою лепту в развитие PiratBit!
      Комментировать посты могут только пользователи прошедшие не сложную регистрацию
      Показать сообщения:    

      Последний закат. Возвращение через торрент
      Скачать бесплатно Последний закат. Возвращение
      Последний закат. Возвращение скачать торрент
      Последний закат. Возвращение смотреть онлайн
      Cкачать фильм Последний закат. Возвращение бесплатно
      Последний закат. Возвращение скачать торрент в хорошем качестве
      Последний закат. Возвращение смотреть онлайн бесплатно в хорошем качестве


      Вы не можете начинать темы
      Вы не можете отвечать на сообщения
      Вы не можете редактировать свои сообщения
      Вы не можете удалять свои сообщения
      Вы не можете голосовать в опросах
      Вы не можете прикреплять файлы к сообщениям
      Вы можете скачивать файлы