новый адрес
Ссылка на приватное зеркало всего за 1$. Внимание количество ограничено!!!

iTunes

1+1

iTunes

мы

iTunes

1

iTunes

Чернобыль

iTunes

Ральф против интернета

Лицензия

ПШазам

Лицензия

Оно 2

Лицензия

30
pack

Вам бонус

ВАЖНО

!!Акция!!

Alien_RageХит недели

RePack

Resident Evil 21

ИГРА 18+

pack

RePack

jed

!!Акция!!

Alien_Rage

RePack

fifa19

RePack

Assassins Creed: Odyssey

RePack

NEED FOR SPEED™ PAYBACK

3 сезон

9 сезон

Бесстыжие 9 сезон

Все сериалы

все сериалы на PB.wtf

RePack

FAR CRY 5
Ребята, катастрофически не хватает 1900р. для оплаты серверов за Октябрь (всвязи с блокировками трафик упал в 3 раза), 1-2р., выручайте.
  

Маленькая мертвая шапочка / Little Dead Rotting Hood (Джаред Кон) [2016 г., Ужасы, HDRip, Любительский (двухголосый)] (Без рекламы) pb.wtf

Маленькая мертвая шапочка через торрент pb.wtf

Размер: 1.45 GB | Добавлен: 3 года 8 мес. назад | Торрент скачан:261 раз
Скачать  

22-03-2016 15:23 Маленькая мертвая шапочка Скачать торрент  

Маленькая мертвая шапочка / Little Dead Rotting Hood
Год выпуска: 2016
Страна: США
Жанр: Ужасы
Продолжительность: 01:28:27
Перевод: Любительский (двухголосый)[Parovoz Production]

Режиссер: Джаред Кон

В ролях: Эрик Бальфур, Бьянка А. Сантос, Лил Ромео, Патрик Малдун, Хизер Том, Брендан Уэйн, Марина Сиртис, Эми Эргил, Тони Кечэм, Jake T. Getman

Описание: Жители небольшого городка обнаруживают, что в глубине леса скрывается нечто более опасное, чем волки. Вскоре, начинают умирать животные, а потом люди.

Качество: HDRip [рип с BDRip 720p]
Формат: AVI
Видео кодек: XviD
Аудио кодек: AC3
Видео: 720x400 (16:9), 1953 kbps, 23,976 fps, 0.283 bit/pixel
Аудио#1: AC3 / 2 ch / 48 kHz / 192 kbps / 16 bit | Russian
Аудио#2: AC3 / 2 ch / 48 kHz / 192 kbps / 16 bit | English
Примечание: Релиз без рекламы


Общее
Полное имя : D:\uTorrent\Little.Dead.Rotting.Hood.2016.L2.HDRip.avi
Формат : AVI
Формат/Информация : Audio Video Interleave
Размер файла : 1,45 Гбайт
Продолжительность : 1 ч. 28 м.
Общий поток : 2352 Кбит/сек
Программа кодирования : VirtualDubMod 1.5.10.3 | www.virtualdub-fr.org || (build 2550/release)
Библиотека кодирования : VirtualDubMod build 2550/release

Видео
Идентификатор : 0
Формат : MPEG-4 Visual
Профиль формата : Advanced Simple@L5
Параметр BVOP формата : 1
Параметр QPel формата : Нет
Параметр GMC формата : Без точки перехода
Параметр матрицы формата : Выборочная
Идентификатор кодека : XVID
Идентификатор кодека/Подсказка : XviD
Продолжительность : 1 ч. 28 м.
Битрейт : 1953 Кбит/сек
Ширина : 720 пикселей
Высота : 400 пикселей
Соотношение сторон : 16:9
Частота кадров : 23,976 (23976/1000) кадра/сек
Цветовое пространство : YUV
Субдискретизация насыщенности : 4:2:0
Битовая глубина : 8 бит
Тип развёртки : Прогрессивная
Метод сжатия : С потерями
Бит/(Пиксели*Кадры) : 0.283
Размер потока : 1,21 Гбайт (83%)
Библиотека кодирования : XviD 73

Аудио #1
Идентификатор : 1
Формат : AC-3
Формат/Информация : Audio Coding 3
Расширение режима : CM (complete main)
Параметр Endianness формата : Big
Идентификатор кодека : 2000
Продолжительность : 1 ч. 28 м.
Вид битрейта : Постоянный
Битрейт : 192 Кбит/сек
Каналы : 2 канала
Расположение каналов : Front: L R
Частота : 48,0 КГц
Частота кадров : 31,250 кадров/сек (1536 spf)
Метод сжатия : С потерями
Размер потока : 121 Мбайт (8%)
Выравнивание : Разделение по промежуткам
Продолжительность промежутка : 42 мс. (1,00 видеокадр)
Время предзагрузки промежутка : 500 мс.

Аудио #2
Идентификатор : 2
Формат : AC-3
Формат/Информация : Audio Coding 3
Расширение режима : CM (complete main)
Параметр Endianness формата : Big
Идентификатор кодека : 2000
Продолжительность : 1 ч. 28 м.
Вид битрейта : Постоянный
Битрейт : 192 Кбит/сек
Каналы : 2 канала
Расположение каналов : Front: L R
Частота : 48,0 КГц
Частота кадров : 31,250 кадров/сек (1536 spf)
Метод сжатия : С потерями
Размер потока : 121 Мбайт (8%)
Выравнивание : Разделение по промежуткам
Продолжительность промежутка : 42 мс. (1,00 видеокадр)
Время предзагрузки промежутка : 500 мс.



pb.wtf



Скачать Маленькая мертвая шапочка через торрент http://i73.fastpic.ru/big/2016/0322/82/f7f55a962a3e526a59cc42d9bc31b782.jpg Скачать фильм Маленькая мертвая шапочка через торрент бесплантно в хорошем качестве Описание: Жители небольшого городка обнаруживают, что в глубине леса скрывается нечто более опасное, чем волки. Вскоре, начинают умирать ... 8.1 10 16
Торрент: Зарегистрирован [2016-03-22 15:23] · скачан: 261 раз
Статус: T временная
Размер: 1.45 GB
Как cкачать? Как скачать Маленькая мертвая шапочка через торрент | qTorrent



Последний раз редактировалось: _Fenixx_ни мужик ни баба (2016-03-22 15:59), всего редактировалось 1 раз

22-03-2016 15:53 Маленькая мертвая шапочка Скачать торрент  

И опять тема сисек раскрыта на ура)))

Цитата:

$-DRON-$ писал(а):

maerof, в таких фильмах они должны быть обязательно т.К только они и вывозят.Вобще при заливке таких фильмов отдельно графу в Инфе о релизе сделал бы. Сиськи:"Присутствуют""Отсутствуют"

pb.wtf



22-03-2016 15:57 Маленькая мертвая шапочка Скачать торрент  

_Fenixx_, http://pb.wtf/topic/201264/
Обратите внимание на требование администрации трекера:

Ворон писал(а):

Также требование к заливающим, проверять свои релизы на наличие рекламы (она как правило идет в начале и в конце) и указывать об этом в теме.

pb.wtf



22-03-2016 16:01 Маленькая мертвая шапочка Скачать торрент  

-Lexx- писал(а):

_Fenixx_, http://pb.wtf/topic/201264/
Обратите внимание на требование администрации трекера:

Ворон писал(а):

Также требование к заливающим, проверять свои релизы на наличие рекламы (она как правило идет в начале и в конце) и указывать об этом в теме.


Указал, проверил, реклама отсутствует!!!pb.wtf



22-03-2016 16:46 Маленькая мертвая шапочка Скачать торрент  

_Fenixx_ писал(а):

сисек раскрыта

оно то так..но там не сиськи а....... swearpb.wtf



22-03-2016 16:57 Маленькая мертвая шапочка Скачать торрент  

Ворон писал(а):

_Fenixx_ писал(а):

сисек раскрыта

оно то так..но там не сиськи а....... swear

pb.wtf



22-03-2016 17:12 Маленькая мертвая шапочка Скачать торрент  

Взглянув на мадам на остальное смотреть pb.wtf



22-03-2016 17:46 Маленькая мертвая шапочка Скачать торрент  

Кроме сисек фильм как?pb.wtf



24-03-2016 09:06 Маленькая мертвая шапочка Скачать торрент  

bober100 писал(а):

Кроме сисек фильм как?

судя по названию фильма.. ни как!!!pb.wtf



    Дорогой пользователь! Огромная просьба, поблагодарите релизера, оцените раздачу и оставьте свои комментарий, если Вы скачали Маленькая мертвая шапочка через торрент бесплатно! Внесите свою лепту в развитие PiratBit!
    Комментировать посты могут только пользователи прошедшие не сложную регистрацию
    Показать сообщения:    

    Маленькая мертвая шапочка через торрент
    Скачать бесплатно Маленькая мертвая шапочка
    Маленькая мертвая шапочка скачать торрент
    Маленькая мертвая шапочка смотреть онлайн
    Cкачать фильм Маленькая мертвая шапочка бесплатно
    Маленькая мертвая шапочка скачать торрент в хорошем качестве
    Маленькая мертвая шапочка смотреть онлайн бесплатно в хорошем качестве


    Вы не можете начинать темы
    Вы не можете отвечать на сообщения
    Вы не можете редактировать свои сообщения
    Вы не можете удалять свои сообщения
    Вы не можете голосовать в опросах
    Вы не можете прикреплять файлы к сообщениям
    Вы можете скачивать файлы