Ссылка на приватное зеркало нашего сайта всего за 1$. Внимание количество ограничено!!!

2 сезон

iTunes

1 сезон

1

iTunes

iTunes

iTunes

1 сезон

RePack

30

ИГРА 18+

pack

ВАЖНО

!!Акция!!

Alien_RageХит недели

RePack

MK11
pack

Забери бонус

RePack

jed

!!Акция!!

Alien_Rage

RePack

fifa19

RePack

Assassins Creed: Odyssey

RePack

NEED FOR SPEED™ PAYBACK

4 сезон

9 сезон

Бесстыжие 9 сезон

Все сериалы

все сериалы на PB.wtf

RePack

FAR CRY 5
  

Дитя субмарины / The Submarine Kid (Эрик Билитч) [2015, драма, мелодрама, WEB-DLRip, Любительский (двухголосый) pb.wtf

Дитя субмарины через торрент pb.wtf

Размер: 1.37 GB | Добавлен: 4 года 7 мес. назад | Торрент скачан:43 раза
Скачать  

22-03-2016 17:15 Дитя субмарины Скачать торрент  


Дитя субмарины / The Submarine Kid


ИНФОРМАЦИЯ:
Год выпуска:2015
Страна: США
Жанр: драма, мелодрама
Продолжительность: 01:50:30
Перевод: Любительский (двухголосый)
Режиссер: Эрик Билитч

В Ролях:


Эмили де Рэвин (Alice), Финн Уиттрок (Spencer Koll), Нэнси Трэвис (Mrs. Koll), Джесси Шрэм (Emily), Майкл Бич (Marc), Джек Коулман (Mr. Koll), Мэтью О’Лири (Toad), Альфонсо МакОли (Paul), Марк Аббинк (Doctor), Пол Айдинг (Mayor), Дилан Мур (Darla), Джаред Абрахамсон (Cooper Koll)

Описание:
Фильм рассказывает историю Спенсера Кинга, который возвращается домой после военных действий в Афганистане. Казалось, он совсем потерял себя, но вдруг он встречает красивую молодую девушку по имени Элис...

  • Мировая премьера:12 ноября 2015

    ТЕХ.ДАННЫЕ:
    Качество: WEB-DLRip
    Формат: AVI
    Видео: XviD, 720x384 (1.875), 1506 kbps, 23,976 fps, 0,227 bpp
    Аудио: AC3 / 2.0 / 48 kHz / 192 kbps / 16 bit


    General
    Complete name : D:\Торенты\The.Submarine.Kid.2015.DVO.WEB-DLRip.1400MB.avi
    Format : AVI
    Format/Info : Audio Video Interleave
    File size : 1.37 GiB
    Duration : 1h 50mn
    Overall bit rate : 1 778 Kbps
    Writing application : VirtualDubMod 1.5.10.2 (build 2540/release)
    Writing library : VirtualDubMod build 2540/release

    Video
    ID : 0
    Format : MPEG-4 Visual
    Format profile : Advanced Simple@L5
    Format settings, BVOP : 2
    Format settings, QPel : No
    Format settings, GMC : No warppoints
    Format settings, Matrix : Default (MPEG)
    Codec ID : XVID
    Codec ID/Hint : XviD
    Duration : 1h 50mn
    Bit rate : 1 506 Kbps
    Width : 720 pixels
    Height : 384 pixels
    Display aspect ratio : 1.875
    Frame rate : 23.976 fps
    Color space : YUV
    Chroma subsampling : 4:2:0
    Bit depth : 8 bits
    Scan type : Progressive
    Compression mode : Lossy
    Bits/(Pixel*Frame) : 0.227
    Stream size : 1.16 GiB (85%)
    Writing library : XviD 1.2.1 (UTC 2008-12-04)

    Audio
    ID : 1
    Format : AC-3
    Format/Info : Audio Coding 3
    Mode extension : CM (complete main)
    Codec ID : 2000
    Duration : 1h 50mn
    Bit rate mode : Constant
    Bit rate : 192 Kbps
    Channel(s) : 2 channels
    Channel positions : Front: L R
    Sampling rate : 48.0 KHz
    Bit depth : 16 bits
    Compression mode : Lossy
    Stream size : 152 MiB (11%)
    Alignment : Split accross interleaves
    Скриншоты:

    © Оформление by .::Ворон::.
    pb.wtf
    !Ворон писал(а):

    Есть реклама казино.



  • Скачать Дитя субмарины через торрент http://pic.kartinco.top/images/6/ordi9.jpg Скачать фильм Дитя субмарины через торрент бесплантно в хорошем качестве Описание: Фильм рассказывает историю Спенсера Кинга, который возвращается домой после военных действий в Афганистане. Казалось, он совсем ... 10 10 3
    Торрент: Зарегистрирован [2016-03-22 17:15] · скачан: 43 раз
    Статус: T временная
    Размер: 1.37 GB
    Как cкачать? Как скачать Дитя субмарины через торрент | qTorrent

    28-11-2019 20:33  

    Отключить всю рекламу на сайте

    23-03-2016 08:46 Дитя субмарины Скачать торрент  

    какая многообещающая завязка!! рискну закончить: ...после эпохальной встречи с этой девицей, Спенсер Кинг слезает со стакана и с ужасом понимает что в афгане НЕТ и НИКОГДА НЕБЫЛО моря. После этого он снова находит себя, попутно раскрывая коварный план Путина (ну фильм-то америкаканский, как же без этого), который лично 9 лет внушал бедняге что Спенсер якобы чернокожий гей герой-подводник, храбро бороздивший глубины афганских гор на сверхсекретной подводной лодке))))pb.wtf



      Дорогой пользователь! Огромная просьба, поблагодарите релизера, оцените раздачу и оставьте свои комментарий, если Вы скачали Дитя субмарины через торрент бесплатно! Внесите свою лепту в развитие PiratBit!
      Комментировать посты могут только пользователи прошедшие не сложную регистрацию
      Показать сообщения:    

      Дитя субмарины через торрент
      Скачать бесплатно Дитя субмарины
      Дитя субмарины скачать торрент
      Дитя субмарины смотреть онлайн
      Cкачать фильм Дитя субмарины бесплатно
      Дитя субмарины скачать торрент в хорошем качестве
      Дитя субмарины смотреть онлайн бесплатно в хорошем качестве


      Вы не можете начинать темы
      Вы не можете отвечать на сообщения
      Вы не можете редактировать свои сообщения
      Вы не можете удалять свои сообщения
      Вы не можете голосовать в опросах
      Вы не можете прикреплять файлы к сообщениям
      Вы можете скачивать файлы