2 сезон

iTunes

1 сезон

1

iTunes

iTunes

iTunes

1 сезон

RePack

30

ИГРА 18+

pack

ВАЖНО

!!Акция!!

Alien_RageХит недели

RePack

MK11
pack

Забери бонус

RePack

jed

!!Акция!!

Alien_Rage

RePack

fifa19

RePack

Assassins Creed: Odyssey

RePack

NEED FOR SPEED™ PAYBACK

4 сезон

9 сезон

Бесстыжие 9 сезон

Все сериалы

все сериалы на PB.wtf

RePack

FAR CRY 5
  

Прогулка среди могил / A Walk Among the Tombstones (Скотт Фрэнк) [2014, детектив, триллер, криминал, драма, BDRip 1080p] DUB [iPTV], 2х AVO pb.wtf

Прогулка среди могил через торрент pb.wtf

Размер: 11.48 GB | Добавлен: 4 года 7 мес. назад | Торрент скачан:40 раз
Скачать  

22-03-2016 18:40 Прогулка среди могил Скачать торрент  

Прогулка среди могил / A Walk Among the Tombstones«Люди боятся не того, чего стоит бояться»
Год выпуска » 2014
Страна » США
Жанр » детектив, триллер, криминал, драма
Продолжительность » 01:54:05
Перевод » Дублированный (iPTV),Авторский одноголосый (Д. Есарев),(А. Гаврилов)
Субтитры » Русские, английские

В ролях
» Лиам Нисон, Дэн Стивенс, Дэвид Харбор, Бойд Холбрук, Себастьян Роше, Астро, Уитни Эйбл, Стефани Андужар, Марина Скверсьяти, Марк Консуэлос

Режиссёр
» Скотт Фрэнк

» Нью-Йорк охватывает волна странных и страшных убийств. Муж одной из жертв, наркобарон, нанимает бывшего полицейского, чтобы тот добрался до убийцы жены. Частный детектив Скаддер видит то, чего не замечает полиция, и проникает туда, куда копы боятся даже сунуть нос. Распутывая дьявольские преступления, он понимает, что люди боятся совсем не того.

• Качество » BDRip 1080p
• Формат » MKV
• Видео кодек » AVC
• Аудио кодек » AC3/DTS
• Видео » 9500 Кбит/с, 1920x804, 23.976 кадр/с
• Аудио » Русский (AC-3 / 6 ch / 384 kbps / 48,0 КГц / 16 bit )
• Аудио » Русский (DTS / 6 ch / 1509 kbps / 48,0 КГц / 24 bit ) - Авторский одноголосый (Д. Есарев)
• Аудио » Русский (DTS / 6 ch / 1509 kbps / 48,0 КГц / 24 bit ) - Авторский одноголосый (А. Гаврилов)
• Аудио » Английский (DTS / 6 ch / 1509 kbps / 48,0 КГц / 24 bit)




Бюджет:$28 000 000

Сборы в США:$26 307 600

Сборы в России: $1 454 379

Сборы в мире:+ $26 874 000 = $53 181 600
Дата мировой премьеры: 18 сентября 2014
Дата российской премьеры: 16 октября 2014, «Двадцатый Век Фокс СНГ», «A Company»
Формат : Matroska
Версия формата : Version 2
Размер файла : 11,5 Гбайт
Продолжительность : 1 ч. 54 м.
Общий поток : 14,4 Мбит/сек
Название фильма : A.Walk.Among.the.Tombstones.2014.x264.BDRip.1080p.BLUEBIRD
Дата кодирования : UTC 2016-03-12 21:03:34
Программа кодирования : mkvmerge v7.9.0 ('Birds') 64bit
Библиотека кодирования : libebml v1.3.1 + libmatroska v1.4.2

Видео
Идентификатор : 1
Формат : AVC
Формат/Информация : Advanced Video Codec
Профиль формата : High@L4.1
Параметр CABAC формата : Да
Параметр ReFrames формата : 5 кадров
Идентификатор кодека : V_MPEG4/ISO/AVC
Продолжительность : 1 ч. 54 м.
Битрейт : 9500 Кбит/сек
Ширина : 1920 пикселей
Высота : 804 пикселя
Соотношение сторон : 2,40:1
Режим частоты кадров : Постоянный
Частота кадров : 23,976 (24000/1001) кадра/сек
Цветовое пространство : YUV
Субдискретизация насыщенности : 4:2:0
Битовая глубина : 8 бит
Тип развёртки : Прогрессивная
Бит/(Пиксели*Кадры) : 0.257
Размер потока : 7,33 Гбайт (64%)
Заголовок : A.Walk.Among.the.Tombstones.2014.x264.BDRip.1080p.BLUEBIRD
Библиотека кодирования : x264 core 130 r2273 b3065e6
Настройки программы : cabac=1 / ref=5 / deblock=1:-3:-3 / analyse=0x3:0x113 / me=umh / subme=11 / psy=1 / psy_rd=0.95:0.10 / mixed_ref=1 / me_range=32 / chroma_me=1 / trellis=2 / 8x8dct=1 / cqm=0 / deadzone=21,11 / fast_pskip=0 / chroma_qp_offset=-5 / threads=12 / lookahead_threads=2 / sliced_threads=0 / nr=0 / decimate=0 / interlaced=0 / bluray_compat=0 / constrained_intra=0 / bframes=8 / b_pyramid=2 / b_adapt=2 / b_bias=0 / direct=3 / weightb=1 / open_gop=0 / weightp=2 / keyint=250 / keyint_min=23 / scenecut=40 / intra_refresh=0 / rc_lookahead=80 / rc=2pass / mbtree=1 / bitrate=9500 / ratetol=1.0 / qcomp=0.60 / qpmin=0 / qpmax=69 / qpstep=4 / cplxblur=20.0 / qblur=0.5 / ip_ratio=1.40 / aq=1:0.95
Язык : English
Default : Да
Forced : Нет

Аудио #1
Идентификатор : 2
Формат : AC-3
Формат/Информация : Audio Coding 3
Расширение режима : CM (complete main)
Параметр Endianness формата : Big
Идентификатор кодека : A_AC3
Продолжительность : 1 ч. 54 м.
Вид битрейта : Постоянный
Битрейт : 384 Кбит/сек
Каналы : 6 каналов
Расположение каналов : Front: L C R, Side: L R, LFE
Частота : 48,0 КГц
Частота кадров : 31,250 кадров/сек (1536 spf)
Метод сжатия : С потерями
Размер потока : 313 Мбайт (3%)
Заголовок : Дублированный (iPTV)
Язык : Russian
Default : Да
Forced : Нет

Аудио #2
Идентификатор : 3
Формат : DTS
Формат/Информация : Digital Theater Systems
Режим : 16
Параметр Endianness формата : Big
Идентификатор кодека : A_DTS
Продолжительность : 1 ч. 54 м.
Вид битрейта : Постоянный
Битрейт : 1510 Кбит/сек
Каналы : 6 каналов
Расположение каналов : Front: L C R, Side: L R, LFE
Частота : 48,0 КГц
Частота кадров : 93,750 кадра/сек (512 spf)
Битовая глубина : 24 бит
Метод сжатия : С потерями
Размер потока : 1,20 Гбайт (10%)
Заголовок : Авторский одноголосый (Д. Есарев)
Язык : Russian
Default : Нет
Forced : Нет
Statistics Tags Issue : mkvmerge v7.1.0 ('Good Love') 64bit built on Jul 27 2014 13:06:55 2015-12-10 10:18:55 / mkvmerge v7.9.0 ('Birds') 64bit 2016-03-12 21:03:34
FromStats_BitRate : 1509002
FromStats_Duration : 01:53:40.491000000
FromStats_FrameCount : 639421
FromStats_StreamSize : 1286517303

Аудио #3
Идентификатор : 4
Формат : DTS
Формат/Информация : Digital Theater Systems
Режим : 16
Параметр Endianness формата : Big
Идентификатор кодека : A_DTS
Продолжительность : 1 ч. 54 м.
Вид битрейта : Постоянный
Битрейт : 1510 Кбит/сек
Каналы : 6 каналов
Расположение каналов : Front: L C R, Side: L R, LFE
Частота : 48,0 КГц
Частота кадров : 93,750 кадра/сек (512 spf)
Битовая глубина : 24 бит
Метод сжатия : С потерями
Размер потока : 1,20 Гбайт (10%)
Заголовок : Авторский одноголосый (А. Гаврилов)
Язык : Russian
Default : Нет
Forced : Нет
Statistics Tags Issue : mkvmerge v7.1.0 ('Good Love') 64bit built on Jul 27 2014 13:06:55 2015-12-10 10:18:55 / mkvmerge v7.9.0 ('Birds') 64bit 2016-03-12 21:03:34
FromStats_BitRate : 1509002
FromStats_Duration : 01:53:41.494000000
FromStats_FrameCount : 639515
FromStats_StreamSize : 1286706431

Аудио #4
Идентификатор : 5
Формат : DTS
Формат/Информация : Digital Theater Systems
Режим : 16
Параметр Endianness формата : Big
Идентификатор кодека : A_DTS
Продолжительность : 1 ч. 54 м.
Вид битрейта : Постоянный
Битрейт : 1509 Кбит/сек
Каналы : 6 каналов
Расположение каналов : Front: L C R, Side: L R, LFE
Частота : 48,0 КГц
Частота кадров : 93,750 кадра/сек (512 spf)
Битовая глубина : 24 бит
Метод сжатия : С потерями
Размер потока : 1,20 Гбайт (10%)
Язык : English
Default : Нет
Forced : Нет

Текст #1
Идентификатор : 6
Формат : UTF-8
Идентификатор кодека : S_TEXT/UTF8
Идентификатор кодека/Информация : UTF-8 Plain Text
Заголовок : full
Язык : Russian
Default : Нет
Forced : Нет
Statistics Tags Issue : mkvmerge v7.1.0 ('Good Love') 64bit built on Jul 27 2014 13:06:55 2015-12-10 10:18:55 / mkvmerge v7.9.0 ('Birds') 64bit 2016-03-12 21:03:34
FromStats_BitRate : 101
FromStats_Duration : 01:46:45.986000000
FromStats_FrameCount : 1434
FromStats_StreamSize : 81602

Текст #2
Идентификатор : 7
Формат : UTF-8
Идентификатор кодека : S_TEXT/UTF8
Идентификатор кодека/Информация : UTF-8 Plain Text
Заголовок : full
Язык : English
Default : Нет
Forced : Нет
Statistics Tags Issue : mkvmerge v7.1.0 ('Good Love') 64bit built on Jul 27 2014 13:06:55 2015-12-10 10:18:55 / mkvmerge v7.9.0 ('Birds') 64bit 2016-03-12 21:03:34
FromStats_BitRate : 62
FromStats_Duration : 01:46:43.689000000
FromStats_FrameCount : 1491
FromStats_StreamSize : 49876

Текст #3
Идентификатор : 8
Формат : UTF-8
Идентификатор кодека : S_TEXT/UTF8
Идентификатор кодека/Информация : UTF-8 Plain Text
Заголовок : SDH
Язык : English
Default : Нет
Forced : Нет
Statistics Tags Issue : mkvmerge v7.1.0 ('Good Love') 64bit built on Jul 27 2014 13:06:55 2015-12-10 10:18:55 / mkvmerge v7.9.0 ('Birds') 64bit 2016-03-12 21:03:34
FromStats_BitRate : 62
FromStats_Duration : 01:46:52.786000000
FromStats_FrameCount : 1563
FromStats_StreamSize : 49994

Меню
00:00:00.000 : en:Chapter 01
00:06:05.490 : en:Chapter 02
00:12:23.576 : en:Chapter 03
00:19:49.730 : en:Chapter 04
00:25:04.377 : en:Chapter 05
00:31:19.377 : en:Chapter 06
00:37:34.126 : en:Chapter 07
00:42:39.682 : en:Chapter 08
00:48:59.061 : en:Chapter 09
00:55:30.452 : en:Chapter 10
01:02:32.540 : en:Chapter 11
01:07:45.019 : en:Chapter 12
01:12:31.305 : en:Chapter 13
01:16:49.980 : en:Chapter 14
01:24:01.036 : en:Chapter 15
01:28:31.055 : en:Chapter 16
01:35:01.320 : en:Chapter 17
01:39:32.049 : en:Chapter 18
01:44:18.710 : en:Chapter 19
01:50:10.729 : en:Chapter 20
[/code]
скриншот   скриншот   скриншот   скриншот  
pb.wtf



Скачать Прогулка среди могил через торрент http://i74.fastpic.ru/big/2015/1218/b5/c39d072d168dbcde95d1a17f670689b5.gif Скачать фильм Прогулка среди могил через торрент бесплантно в хорошем качестве В ролях » Лиам Нисон, Дэн Стивенс, Дэвид Харбор, Бойд Холбрук, Себастьян Роше, Астро, Уитни Эйбл, Стефани Андужар, Марина Скверсьяти, Марк ... 8.2 10 5
Торрент: Зарегистрирован [2016-03-22 18:40] · скачан: 40 раз
Статус: √ проверено
Размер: 11.48 GB
Как cкачать? Как скачать Прогулка среди могил через торрент | qTorrent



Последний раз редактировалось: $-DRON-$ (2016-03-22 18:51), всего редактировалось 2 раз(а)

28-11-2019 20:33  

Отключить всю рекламу на сайте

    Дорогой пользователь! Огромная просьба, поблагодарите релизера, оцените раздачу и оставьте свои комментарий, если Вы скачали Прогулка среди могил через торрент бесплатно! Внесите свою лепту в развитие PiratBit!
    Комментировать посты могут только пользователи прошедшие не сложную регистрацию
    Показать сообщения:    

    Прогулка среди могил через торрент
    Скачать бесплатно Прогулка среди могил
    Прогулка среди могил скачать торрент
    Прогулка среди могил смотреть онлайн
    Cкачать фильм Прогулка среди могил бесплатно
    Прогулка среди могил скачать торрент в хорошем качестве
    Прогулка среди могил смотреть онлайн бесплатно в хорошем качестве


    Вы не можете начинать темы
    Вы не можете отвечать на сообщения
    Вы не можете редактировать свои сообщения
    Вы не можете удалять свои сообщения
    Вы не можете голосовать в опросах
    Вы не можете прикреплять файлы к сообщениям
    Вы можете скачивать файлы