Всегда рабочее зеркало просто перед .vidak.icu напиши любое слово или цифру, Пример http://5j8.vidak.icu

>

7.4

iTunes

7.4

2 сезон

6.6

iTunes

1

7.4

2 сезон

7.2

iTunes

6.0

MVO

13

6.1

iTunes

8.3

Пиратка

30

ULTIMATE

pack

9.9

Лицензия

ВАЖНО

ИГРА 18+

pack

7.3

RePack

MK11

7.7

RePack

jed

7.8

RePack

fifa19

8.5

RePack

RDR2

RePack

NEED FOR SPEED™ PAYBACK

1 сезон

9 сезон

Бесстыжие 9 сезон

Все сериалы

все сериалы на PB.wtf

RePack

FAR CRY 5

Anonymous, добрый день, мы катастрофически не успеваем собрать деньги на оплату серверов, помогите нам пожалуйста 5,10,15р., для нас важна любая помощь . В качестве благодарности мы отключим Вам всю рекламу на сайте (укажите свой ник в строку Ваше имя)!

×
  
Magnet ссылка

Хот-Бот / Hot Bot (Майкл Полиш) [2016, фантастика, комедия, WEB-DLRip] DVO (Без рекламы) pb.wtf

Хот-Бот через торрент pb.wtf

Размер: 1.38 GB | Добавлен: 5 лет 10 мес. назад | Торрент скачан:160 раз
Смотреть онлайн Хот-Бот | Скачать    Ребята, помогите собрать деньги на оплату серверов!!!

22-03-2016 20:47 Хот-Бот Скачать торрент  

Хот-Бот / Hot Bot
Год выпуска » 2016
Страна » США
Жанр » фантастика, комедия
Продолжительность » 01:32:00
Перевод » Двухголосый (любительский) • Parovoz Production
Субтитры » Отсутствуют

В ролях
» Зак Перлман, Даг Хейли, Синтия Киршнер, Дэвид Шакелфорд, Энтони Андерсон, Дональд Фэйзон, Дэнни Мастерсон, Ларри Миллер, Анджела Кинси, Кирби Блисс Блэнтон

Режиссёр
» Майкл Полиш

» Приключения двух задротов-ботанов, которые наткнулись на суперсексмодель....

• Качество » WEB-DLRip
• Формат » AVI
• Видео кодек » XviD
• Аудио кодек » MP3,AC3
• Видео » 1688 Кбит/с, 720x304, 25 fps
• Аудио » Русский (MP3 / 2 ch / 256 kbps / 48,0 КГц / 16 bit )
• Аудио » Английский (AC-3 / 2 ch / 192 kbps / 48,0 КГц / 16 bit)


Общее
Полное имя : F:\HoT.BoT.2O16.L2.WEB-DLRip.avi
Формат : AVI
Формат/Информация : Audio Video Interleave
Размер файла : 1,38 Гбайт
Продолжительность : 1 ч. 32 м.
Общий поток : 2151 Кбит/сек
Программа кодирования : VirtualDubMod 1.5.10.3 | www.virtualdub-fr.org || (build 2550/release)
Библиотека кодирования : VirtualDubMod build 2550/release

Видео
Идентификатор : 0
Формат : MPEG-4 Visual
Профиль формата : Advanced Simple@L5
Параметр BVOP формата : 2
Параметр QPel формата : Нет
Параметр GMC формата : Без точки перехода
Параметр матрицы формата : Default (H.263)
Режим смешивания : Сжатый битовый поток
Идентификатор кодека : XVID
Идентификатор кодека/Подсказка : XviD
Продолжительность : 1 ч. 32 м.
Битрейт : 1688 Кбит/сек
Ширина : 720 пикселей
Высота : 304 пикселя
Соотношение сторон : 2,35:1
Частота кадров : 25,000 кадров/сек
Цветовое пространство : YUV
Субдискретизация насыщенности : 4:2:0
Битовая глубина : 8 бит
Тип развёртки : Прогрессивная
Метод сжатия : С потерями
Бит/(Пиксели*Кадры) : 0.309
Размер потока : 1,08 Гбайт (78%)
Библиотека кодирования : XviD 66

Аудио #1
Идентификатор : 1
Формат : MPEG Audio
Версия формата : Version 1
Профиль формата : Layer 3
Режим : Joint stereo
Расширение режима : MS Stereo
Идентификатор кодека : 55
Идентификатор кодека/Подсказка : MP3
Продолжительность : 1 ч. 32 м.
Вид битрейта : Постоянный
Битрейт : 256 Кбит/сек
Каналы : 2 канала
Частота : 48,0 КГц
Метод сжатия : С потерями
Размер потока : 168 Мбайт (12%)
Выравнивание : Соединение по промежуткам
Продолжительность промежутка : 40 мс. (1,00 видеокадр)
Время предзагрузки промежутка : 504 мс.
Библиотека кодирования : LAME3.99r
Настройки программы : -m j -V 4 -q 2 -lowpass 19.7

Аудио #2
Идентификатор : 2
Формат : AC-3
Формат/Информация : Audio Coding 3
Расширение режима : CM (complete main)
Параметр Endianness формата : Big
Идентификатор кодека : 2000
Продолжительность : 1 ч. 32 м.
Вид битрейта : Постоянный
Битрейт : 192 Кбит/сек
Каналы : 2 канала
Расположение каналов : Front: L R
Частота : 48,0 КГц
Битовая глубина : 16 бит
Метод сжатия : С потерями
Размер потока : 126 Мбайт (9%)
Выравнивание : Разделение по промежуткам
Продолжительность промежутка : 40 мс. (1,00 видеокадр)
Время предзагрузки промежутка : 500 мс.
[/code]
скриншот   скриншот   скриншот   скриншот   скриншот   скриншот  
pb.wtf



Скачать Хот-Бот через торрент http://i74.fastpic.ru/big/2015/1218/b5/c39d072d168dbcde95d1a17f670689b5.gif Скачать, смотреть онлайн Хот-Бот бесплантно в хорошем качестве В ролях » Зак Перлман, Даг Хейли, Синтия Киршнер, Дэвид Шакелфорд, Энтони Андерсон, Дональд Фэйзон, Дэнни Мастерсон, Ларри Миллер, Анджела ... 7.3 10 8
Торрент: Зарегистрирован [2016-03-22 20:47] · скачан: 160 раз
Статус: T временная
Размер: 1.38 GB
Как cкачать? Как скачать Хот-Бот через торрент | UTorrent

% Раздел Тема Автор DL S | L
T Фильмы 2016 (Звук TS, Cam, VO, DVO) [ 748 MB ] Хот Бот / Hot Bot [2016 WEB-DLRip by _Один_777] DVO без рекламы Один 777 Скачать
1 | 0

28-11-2019 20:33  

Отключить всю рекламу на сайте

    Дорогой пользователь! Огромная просьба, поблагодарите релизера, оцените раздачу и оставьте свои комментарий, если Вы скачали Хот-Бот через торрент бесплатно!
    Комментировать посты могут только пользователи прошедшие не сложную регистрацию
    Показать сообщения:    

    Хот-Бот через торрент
    Скачать бесплатно Хот-Бот
    Хот-Бот скачать торрент
    Хот-Бот смотреть онлайн
    Cкачать фильм Хот-Бот бесплатно
    Хот-Бот скачать торрент в хорошем качестве
    Хот-Бот смотреть онлайн бесплатно в хорошем качестве


    Вы не можете начинать темы
    Вы не можете отвечать на сообщения
    Вы не можете редактировать свои сообщения
    Вы не можете удалять свои сообщения
    Вы не можете голосовать в опросах
    Вы не можете прикреплять файлы к сообщениям
    Вы можете скачивать файлы