>

7.4

iTunes

7.4

2 сезон

9.4

1 сезон

1

7.4

2 сезон

7.2

iTunes

6.0

MVO

13

6.1

iTunes

8.3

Пиратка

30

ULTIMATE

pack

9.9

Лицензия

ВАЖНО

ИГРА 18+

pack

7.3

RePack

MK11

7.7

RePack

jed

7.8

RePack

fifa19

8.5

RePack

RDR2

RePack

NEED FOR SPEED™ PAYBACK

1 сезон

9 сезон

Бесстыжие 9 сезон

Все сериалы

все сериалы на PB.wtf

RePack

FAR CRY 5

Anonymous, доброе утро, мы катастрофически не успеваем собрать деньги на оплату серверов, помогите нам пожалуйста 5,10,15р., для нас важна любая помощь . В качестве благодарности мы отключим Вам всю рекламу на сайте (укажите свой ник в строку Ваше имя)!

×
  
Magnet ссылка

Грязная ложь / Dirty Lies (Джэми Маршалл) [2016, боевик, триллер, драма, криминал, DVDRip] DVO (Без рекламы) pb.wtf

Грязная ложь через торрент pb.wtf

Размер: 1.37 GB | Добавлен: 5 лет 9 мес. назад | Торрент скачан:117 раз
Смотреть онлайн Грязная ложь | Скачать    Ребята, помогите собрать деньги на оплату серверов!!!

22-03-2016 21:39 Грязная ложь Скачать торрент  

Грязная ложь / Dirty Lies
Год выпуска » 2016
Страна » США / Marshall Law Entertainment
Жанр » боевик, триллер, драма, криминал
Продолжительность » 01:19:16
Перевод » Двухголосый (любительский) • Parovoz Production
Субтитры » Отсутствуют

В ролях
» Таня Рэймонд, ЭйДжей Мичалка, Кит Дэвид, Скаут Тэйлор-Комптон, Франсиа Рэйса, Брайан Коллен, Марк Л. Янг, Бо Напп, Трой Эванс, Акилла Золл


Режиссёр
» Джэми Маршалл

» Младшему помощнику босса было доверено ожерелье ценой в 1 миллион долларов, однако кто-то из товарищей обворовал его...

• Качество » DVDRip
• Формат » AVI
• Видео кодек » XviD
• Аудио кодек » AC3
• Видео » 2078 kb/s, 720x384, 25 fps
• Аудио » Русский (AC-3 / 2 ch / 384 kbps / 48,0 КГц / 16 bit )


Общее
Полное имя : F:\Graznaya.Loj.2016.L2.DVDRip.avi
Формат : AVI
Формат/Информация : Audio Video Interleave
Размер файла : 1,37 Гбайт
Продолжительность : 1 ч. 19 м.
Общий поток : 2472 Кбит/сек
Программа кодирования : VirtualDubMod 1.5.10.3 | www.virtualdub-fr.org || (build 2550/release)
Библиотека кодирования : VirtualDubMod build 2550/release

Видео
Идентификатор : 0
Формат : MPEG-4 Visual
Профиль формата : Advanced Simple@L5
Параметр BVOP формата : 2
Параметр QPel формата : Нет
Параметр GMC формата : Без точки перехода
Параметр матрицы формата : Выборочная
Идентификатор кодека : XVID
Идентификатор кодека/Подсказка : XviD
Продолжительность : 1 ч. 19 м.
Битрейт : 2078 Кбит/сек
Ширина : 720 пикселей
Высота : 384 пикселя
Соотношение сторон : 1,85:1
Частота кадров : 25,000 кадров/сек
Цветовое пространство : YUV
Субдискретизация насыщенности : 4:2:0
Битовая глубина : 8 бит
Тип развёртки : Прогрессивная
Метод сжатия : С потерями
Бит/(Пиксели*Кадры) : 0.301
Размер потока : 1,15 Гбайт (84%)
Библиотека кодирования : XviD 1.2.1 (UTC 2008-12-04)

Аудио
Идентификатор : 1
Формат : AC-3
Формат/Информация : Audio Coding 3
Расширение режима : CM (complete main)
Параметр Endianness формата : Big
Идентификатор кодека : 2000
Продолжительность : 1 ч. 19 м.
Вид битрейта : Постоянный
Битрейт : 384 Кбит/сек
Каналы : 2 канала
Расположение каналов : Front: L R
Частота : 48,0 КГц
Битовая глубина : 16 бит
Метод сжатия : С потерями
Размер потока : 218 Мбайт (16%)
Выравнивание : Разделение по промежуткам
Продолжительность промежутка : 40 мс. (1,00 видеокадр)
Время предзагрузки промежутка : 500 мс.
[/code]
скриншот   скриншот   скриншот   скриншот   скриншот  
pb.wtf



Скачать Грязная ложь через торрент http://i74.fastpic.ru/big/2015/1218/b5/c39d072d168dbcde95d1a17f670689b5.gif Скачать, смотреть онлайн Грязная ложь бесплантно в хорошем качестве В ролях » Таня Рэймонд, ЭйДжей Мичалка, Кит Дэвид, Скаут Тэйлор-Комптон, Франсиа Рэйса, Брайан Коллен, Марк Л. Янг, Бо Напп, Трой Эванс, ... 9.3 10 4
Торрент: Зарегистрирован [2016-03-22 21:39] · скачан: 117 раз
Статус: T временная
Размер: 1.37 GB
Как cкачать? Как скачать Грязная ложь через торрент | UTorrent

% Раздел Тема Автор DL S | L
T Фильмы (мультфильмы) cо спонсором показа (Новинки AVI/MKV) [ 1.37 GB ] Грязная невинная ложь / Dirty White Lies [2017 DVDRip] MVO ["Синема УС"] bober100 Скачать
1 | 0
T Фильмы 2016 (Звук TS, Cam, VO, DVO) [ 746 MB ] Грязная ложь / Dirty Lies [2016 DVDRip by _Один_777] DVO без рекламы Один 777 Скачать
1 | 0
Порно фильмы с сюжетом [ 1.46 GB ] Грязная симпатичная ложь / Dirty Pretty Lies [2007 Feature Couples Vignettes PornStars Pantyhose Straight Sex Oral DVDRip-AVC Оригинал] sheker187 Скачать
1 | 0


Последний раз редактировалось: $-DRON-$ (2016-03-23 09:44), всего редактировалось 1 раз

28-11-2019 20:33  

Отключить всю рекламу на сайте

23-03-2016 09:07 Грязная ложь Скачать торрент  

Цитата:

Качество » WEB-DLRip

DVDRippb.wtf



    Дорогой пользователь! Огромная просьба, поблагодарите релизера, оцените раздачу и оставьте свои комментарий, если Вы скачали Грязная ложь через торрент бесплатно!
    Комментировать посты могут только пользователи прошедшие не сложную регистрацию
    Показать сообщения:    

    Грязная ложь через торрент
    Скачать бесплатно Грязная ложь
    Грязная ложь скачать торрент
    Грязная ложь смотреть онлайн
    Cкачать фильм Грязная ложь бесплатно
    Грязная ложь скачать торрент в хорошем качестве
    Грязная ложь смотреть онлайн бесплатно в хорошем качестве


    Вы не можете начинать темы
    Вы не можете отвечать на сообщения
    Вы не можете редактировать свои сообщения
    Вы не можете удалять свои сообщения
    Вы не можете голосовать в опросах
    Вы не можете прикреплять файлы к сообщениям
    Вы можете скачивать файлы