новый адрес пиратбит piratbit
Мега распродажа FORZA HORIZON 4 ULTIMATE+ВСЕ DLC+ОНЛАЙН всего за 499р. 349 руб. (супер цена). Внимание количество ограничено!!!

iTunes

1+1

iTunes

мы

iTunes

1

iTunes

Чернобыль

iTunes

Ральф против интернета

Лицензия

ПШазам

Лицензия

Игра престолов

Лицензия

30
pack

ВАЖНО

!!Акция!!

Alien_RageХит недели

RePack

Resident Evil 21

ИГРА 18+

pack

RePack

Metro:Exodus

!!Акция!!

Alien_Rage

RePack

fifa19

RePack

Assassins Creed: Odyssey

RePack

NEED FOR SPEED™ PAYBACK

3 сезон

9 сезон

Бесстыжие 9 сезон

Все сериалы

все сериалы на PB.wtf

RePack

FAR CRY 5
Ребята, катастрофически не хватает 1900р. для оплаты серверов за Октябрь (всвязи с блокировками трафик упал в 3 раза), 1-2р., выручайте.
  

Зоозомби / Zoombies / Dirty Lies (Гленн Миллер) [2016, ужасы, фантастика, боевик, WEB-DLRip] DVO (Без рекламы) pb.wtf

Зоозомби через торрент pb.wtf

Размер: 1.39 GB | Добавлен: 3 года 7 мес. назад | Торрент скачан:160 раз
Скачать  

22-03-2016 21:50 Зоозомби Скачать торрент  

Зоозомби / Zoombies
Год выпуска » 2016
Страна » США / Global Asylum
Жанр » ужасы, фантастика, боевик
Продолжительность » 01:27:20
Перевод » Двухголосый (любительский) • Parovoz Production
Субтитры » Отсутствуют

В ролях
» Исаак Андерсон, Маркус Андерсон, Andrew Asper, Иона Батлер, Brianna Joy Chomer, Джозеф Конти, Майкл Дельгадо, Иван Джурович, Aaron Groben, Седрик Джонатан


Режиссёр
» Гленн Миллер

» Животные в парке Сафари были заражены неизвестным вирусом, который превратил их в кровожадных и беспощадных зомби...

• Качество » WEB-DLRip
• Формат » AVI
• Видео кодек » XviD
• Аудио кодек » AC3
• Видео » 1874 kb/s, 720x400, 25 fps
• Аудио » Русский (AC-3 / 2 ch / 192 kbps / 48,0 КГц / 16 bit )
• Аудио » Английский (AC-3 / 2 ch / 192 kbps / 48,0 КГц / 16 bit)


Общее
Полное имя : F:\Zoombies.2016.L2.WEB-DLRip.avi
Формат : AVI
Формат/Информация : Audio Video Interleave
Размер файла : 1,39 Гбайт
Продолжительность : 1 ч. 27 м.
Общий поток : 2273 Кбит/сек
Программа кодирования : VirtualDubMod 1.5.10.3 | www.virtualdub-fr.org || (build 2550/release)
Библиотека кодирования : VirtualDubMod build 2550/release

Видео
Идентификатор : 0
Формат : MPEG-4 Visual
Профиль формата : Advanced Simple@L5
Параметр BVOP формата : 2
Параметр QPel формата : Нет
Параметр GMC формата : Без точки перехода
Параметр матрицы формата : Default (H.263)
Идентификатор кодека : XVID
Идентификатор кодека/Подсказка : XviD
Продолжительность : 1 ч. 27 м.
Битрейт : 1874 Кбит/сек
Ширина : 720 пикселей
Высота : 400 пикселей
Соотношение сторон : 16:9
Частота кадров : 23,976 кадра/сек
Цветовое пространство : YUV
Субдискретизация насыщенности : 4:2:0
Битовая глубина : 8 бит
Тип развёртки : Прогрессивная
Метод сжатия : С потерями
Бит/(Пиксели*Кадры) : 0.271
Размер потока : 1,14 Гбайт (82%)
Библиотека кодирования : XviD 73

Аудио #1
Идентификатор : 1
Формат : AC-3
Формат/Информация : Audio Coding 3
Расширение режима : CM (complete main)
Параметр Endianness формата : Big
Идентификатор кодека : 2000
Продолжительность : 1 ч. 27 м.
Вид битрейта : Постоянный
Битрейт : 192 Кбит/сек
Каналы : 2 канала
Расположение каналов : Front: L R
Частота : 48,0 КГц
Битовая глубина : 16 бит
Метод сжатия : С потерями
Размер потока : 120 Мбайт (8%)
Выравнивание : Разделение по промежуткам
Продолжительность промежутка : 42 мс. (1,00 видеокадр)
Время предзагрузки промежутка : 500 мс.

Аудио #2
Идентификатор : 2
Формат : AC-3
Формат/Информация : Audio Coding 3
Расширение режима : CM (complete main)
Параметр Endianness формата : Big
Идентификатор кодека : 2000
Продолжительность : 1 ч. 27 м.
Вид битрейта : Постоянный
Битрейт : 192 Кбит/сек
Каналы : 2 канала
Расположение каналов : Front: L R
Частота : 48,0 КГц
Битовая глубина : 16 бит
Метод сжатия : С потерями
Размер потока : 120 Мбайт (8%)
Выравнивание : Разделение по промежуткам
Продолжительность промежутка : 42 мс. (1,00 видеокадр)
Время предзагрузки промежутка : 500 мс.
[/code]
скриншот   скриншот   скриншот   скриншот   скриншот  
pb.wtf



Скачать Зоозомби через торрент http://i74.fastpic.ru/big/2015/1218/b5/c39d072d168dbcde95d1a17f670689b5.gif Скачать фильм Зоозомби через торрент бесплантно в хорошем качестве В ролях » Исаак Андерсон, Маркус Андерсон, Andrew Asper, Иона Батлер, Brianna Joy Chomer, Джозеф Конти, Майкл Дельгадо, Иван Джурович, ... 8.5 10 8
Торрент: Зарегистрирован [2016-03-22 21:50] · скачан: 160 раз
Статус: T временная
Размер: 1.39 GB
Как cкачать? Как скачать Зоозомби через торрент | qTorrent


>> Регистрируемся здесь <<






Отзывы и комментарии о схеме читаем и пишем здесь: ---> Отзывы и комментарии о схеме

Новые благодарочки в телеграм довольных пользователей:
скриншот   скриншот   скриншот   скриншот   скриншот

22-03-2016 23:04 Зоозомби Скачать торрент  

Сильно =))pb.wtf



22-03-2016 23:12 Зоозомби Скачать торрент  

омг pb.wtf



23-03-2016 02:20 Зоозомби Скачать торрент  

Я знаю на кого похоже эта собака)pb.wtf



23-03-2016 09:19 Зоозомби Скачать торрент  

bober100 писал(а):

Я знаю на кого похоже эта собака)

Я тоже догадался на кого похож этот лев sarcasticpb.wtf



    Дорогой пользователь! Огромная просьба, поблагодарите релизера, оцените раздачу и оставьте свои комментарий, если Вы скачали Зоозомби через торрент бесплатно! Внесите свою лепту в развитие PiratBit!
    Комментировать посты могут только пользователи прошедшие не сложную регистрацию
    Показать сообщения:    

    Зоозомби через торрент
    Скачать бесплатно Зоозомби
    Зоозомби скачать торрент
    Зоозомби смотреть онлайн
    Cкачать фильм Зоозомби бесплатно
    Зоозомби скачать торрент в хорошем качестве
    Зоозомби смотреть онлайн бесплатно в хорошем качестве


    Вы не можете начинать темы
    Вы не можете отвечать на сообщения
    Вы не можете редактировать свои сообщения
    Вы не можете удалять свои сообщения
    Вы не можете голосовать в опросах
    Вы не можете прикреплять файлы к сообщениям
    Вы можете скачивать файлы