Ссылка на приватное зеркало нашего сайта всего за 1$. Внимание количество ограничено!!!

2 сезон

iTunes

1 сезон

1

2 сезон

2 сезон

iTunes

1 сезон

RePack

30

Новинка

ВАЖНО

ИГРА 18+

pack

RePack

MK11
pack

Забери бонус

RePack

jed

!!Акция!!

Alien_Rage

RePack

fifa19

RePack

Assassins Creed: Odyssey

RePack

NEED FOR SPEED™ PAYBACK

4 сезон

9 сезон

Бесстыжие 9 сезон

Все сериалы

все сериалы на PB.wtf

RePack

FAR CRY 5
  

Все ошибки зарыты / All Mistakes Buried (Тим МакКанн) [2015, Триллер, драма, WEB-DLRip] DVO (Без рекламы) pb.wtf

Все ошибки зарыты через торрент pb.wtf

Размер: 1.38 GB | Добавлен: 4 года 8 мес. назад | Торрент скачан:83 раза
Скачать  

23-03-2016 11:30 Все ошибки зарыты Скачать торрент  

Все ошибки зарыты / All Mistakes Buried«Some wounds never heal»
Год выпуска » 2015
Страна » США, SSS Entertainment
Жанр » Триллер, драма
Продолжительность » 01:22:27
Перевод » Двухголосый (любительский) • Parovoz Production
Субтитры » Отсутствуют

В ролях
» Ванесса Ферлито, Сэм Трэммелл, Мисси Ягер, Николас М. Лоб, Мария МакКанн, Карл Палмер, Бенжамин Брант Бикхэм, Сьюэнн Хан, Шэйн Гилбо

Режиссёр
» Тим МакКанн

» Однажды случилось то, что расшевелило последние остатки человечности внутри загнивающего зависимого: преступники украли прекрасный кулон, который Сонни годы назад подарил супруге. Он свято верит, что если вернёт кулон - все ошибки будут похоронены, жена вернётся и жизнь наладится. Ради воплощения мечты он пускается в опасную авантюру и погружается в самое сердце криминального мира его небольшого южного городка, восстав против кровожадных убийц и безжалостных бандитов.

• Качество » WEB-DLRip
• Формат » AVI
• Видео кодек » XviD
• Аудио кодек » AC-3
• Видео »1993 Кбит/с, 720x400, 23,976 кадра/сек
• Аудио » Русский (AC-3 / 2 ch / 192 kbps / 48,0 КГц / 16 bit )
• Аудио » Английский (AC-3 / 2 ch / 192 kbps / 48,0 КГц / 16 bit)


Общее
Полное имя : F:\All Mistakes Buried.2015.L2.WEB-DLRip.avi
Формат : AVI
Формат/Информация : Audio Video Interleave
Размер файла : 1,38 Гбайт
Продолжительность : 1 ч. 22 м.
Общий поток : 2391 Кбит/сек
Программа кодирования : VirtualDubMod 1.5.10.3 | www.virtualdub-fr.org || (build 2550/release)
Библиотека кодирования : VirtualDubMod build 2550/release

Видео
Идентификатор : 0
Формат : MPEG-4 Visual
Профиль формата : Advanced Simple@L5
Параметр BVOP формата : 2
Параметр QPel формата : Нет
Параметр GMC формата : Без точки перехода
Параметр матрицы формата : Default (H.263)
Режим смешивания : Сжатый битовый поток
Идентификатор кодека : XVID
Идентификатор кодека/Подсказка : XviD
Продолжительность : 1 ч. 22 м.
Битрейт : 1993 Кбит/сек
Ширина : 720 пикселей
Высота : 400 пикселей
Соотношение сторон : 16:9
Частота кадров : 23,976 кадра/сек
Цветовое пространство : YUV
Субдискретизация насыщенности : 4:2:0
Битовая глубина : 8 бит
Тип развёртки : Прогрессивная
Метод сжатия : С потерями
Бит/(Пиксели*Кадры) : 0.289
Размер потока : 1,15 Гбайт (83%)
Библиотека кодирования : XviD 66

Аудио #1
Идентификатор : 1
Формат : AC-3
Формат/Информация : Audio Coding 3
Расширение режима : CM (complete main)
Параметр Endianness формата : Big
Идентификатор кодека : 2000
Продолжительность : 1 ч. 22 м.
Вид битрейта : Постоянный
Битрейт : 192 Кбит/сек
Каналы : 2 канала
Расположение каналов : Front: L R
Частота : 48,0 КГц
Битовая глубина : 16 бит
Метод сжатия : С потерями
Размер потока : 113 Мбайт (8%)
Выравнивание : Разделение по промежуткам
Продолжительность промежутка : 42 мс. (1,00 видеокадр)
Время предзагрузки промежутка : 500 мс.

Аудио #2
Идентификатор : 2
Формат : AC-3
Формат/Информация : Audio Coding 3
Расширение режима : CM (complete main)
Параметр Endianness формата : Big
Идентификатор кодека : 2000
Продолжительность : 1 ч. 22 м.
Вид битрейта : Постоянный
Битрейт : 192 Кбит/сек
Каналы : 2 канала
Расположение каналов : Front: L R
Частота : 48,0 КГц
Битовая глубина : 16 бит
Метод сжатия : С потерями
Размер потока : 113 Мбайт (8%)
Выравнивание : Разделение по промежуткам
Продолжительность промежутка : 42 мс. (1,00 видеокадр)
Время предзагрузки промежутка : 500 мс.
[/code]
скриншот   скриншот   скриншот  
pb.wtf



Скачать Все ошибки зарыты через торрент http://i74.fastpic.ru/big/2015/1218/b5/c39d072d168dbcde95d1a17f670689b5.gif Скачать фильм Все ошибки зарыты через торрент бесплантно в хорошем качестве В ролях » Ванесса Ферлито, Сэм Трэммелл, Мисси Ягер, Николас М. Лоб, Мария МакКанн, Карл Палмер, Бенжамин Брант Бикхэм, Сьюэнн Хан, Шэйн ... 10 10 1
Торрент: Зарегистрирован [2016-03-23 11:30] · скачан: 83 раз
Статус: T временная
Размер: 1.38 GB
Как cкачать? Как скачать Все ошибки зарыты через торрент | qTorrent

28-11-2019 20:33  

Отключить всю рекламу на сайте

    Дорогой пользователь! Огромная просьба, поблагодарите релизера, оцените раздачу и оставьте свои комментарий, если Вы скачали Все ошибки зарыты через торрент бесплатно! Внесите свою лепту в развитие PiratBit!
    Комментировать посты могут только пользователи прошедшие не сложную регистрацию
    Показать сообщения:    

    Все ошибки зарыты через торрент
    Скачать бесплатно Все ошибки зарыты
    Все ошибки зарыты скачать торрент
    Все ошибки зарыты смотреть онлайн
    Cкачать фильм Все ошибки зарыты бесплатно
    Все ошибки зарыты скачать торрент в хорошем качестве
    Все ошибки зарыты смотреть онлайн бесплатно в хорошем качестве


    Вы не можете начинать темы
    Вы не можете отвечать на сообщения
    Вы не можете редактировать свои сообщения
    Вы не можете удалять свои сообщения
    Вы не можете голосовать в опросах
    Вы не можете прикреплять файлы к сообщениям
    Вы можете скачивать файлы