Ссылка на приватное зеркало нашего сайта всего за 1$. Внимание количество ограничено!!!

2 сезон

iTunes

1 сезон

1

iTunes

iTunes

iTunes

1 сезон

RePack

30

ИГРА 18+

pack

ВАЖНО

!!Акция!!

Alien_RageХит недели

RePack

MK11
pack

Забери бонус

RePack

jed

!!Акция!!

Alien_Rage

RePack

fifa19

RePack

Assassins Creed: Odyssey

RePack

NEED FOR SPEED™ PAYBACK

4 сезон

9 сезон

Бесстыжие 9 сезон

Все сериалы

все сериалы на PB.wtf

RePack

FAR CRY 5
  

Земля будущего / Tomorrowland (Брэд Бёрд / Brad Bird) [2015 г., фантастика, боевик, детектив, приключения, семейный, BDRip 1080p, Дубляж Лицензия] pb.wtf

Земля будущего через торрент pb.wtf

Размер: 7.76 GB | Добавлен: 4 года 7 мес. назад | Торрент скачан:745 раз
Скачать  

24-03-2016 11:49 Земля будущего Скачать торрент  

Земля будущего / Tomorrowland
Год выпуска: 2015
Страна: США, Испания / Walt Disney Pictures, Babieka, A113
Жанр: фантастика, боевик, детектив, приключения, семейный
Продолжительность: 02:10:03
Перевод: Дубляж [Лицензия, BD CEE]
Субтитры: Русские (форс,полные), Английские

Режиссер: Брэд Бёрд / Brad Bird

В ролях: Бритт Робертсон (Casey Newton), Джордж Клуни (Frank Walker), Рэффи Кэссиди (Athena), Хью Лори (Nix), Тим МакГроу (Eddie Newton), Кэтрин Хан (Ursula), Кигэн-Майкл Ки (Hugo), Кристофер Бауэр (Frank's Dad), Томас Робинсон (Young Frank Walker), Пирс Гэнон (Nate Newton), Мэттью МакКоулл (Dave Clark), Джуди Грир (Jenny Newton)

Описание: Когда в руки к молодой девушке, жаждущей новых приключений, попадает загадочный предмет, открывающий доступ в параллельную реальность, она вынуждена обратиться за помощью к циничному гению-изобретателю Фрэнку. Кейси должна убедить бывшего вундеркинда раскрыть ей тайну загадочного места, находящегося вне привычной реальности, известного как Земля будущего, и убедить Фрэнка вернуться туда, откуда его однажды изгнали...



Качество: BDRip 1080p
Формат: MKV
Видео кодек: AVC
Аудио кодек: AC3
Видео: 1920x872 (2,20:1), 23.976 fps, 7260 kbps
Аудио#1: AC-3, 48.0 KHz, 6 ch, 640 kbps (Rus)
Аудио#2: AC-3, 48.0 KHz, 6 ch, 640 kbps (Eng)
General
Unique ID : 184826185312508376384967173226316971509 (0x8B0C3A7DAAB015E6BBEA50D95BE43DF5)
Complete name : D:Tomorrowland.2015.BDRip.1080p.Rus.Eng.mkv
Format : Matroska
Format version : Version 2
File size : 7.76 GiB
Duration : 2h 10mn
Overall bit rate : 8 539 Kbps
Movie name : Земля будущего / Tomorrowland (2015)
Encoded date : UTC 2015-10-11 14:00:03
Writing application : mkvmerge v5.8.0 ('No Sleep / Pillow') built on Sep 2 2012 15:37:04
Writing library : libebml v1.2.3 + libmatroska v1.3.0
Attachements : cover.png / logfile.log

Video
ID : 1
Format : AVC
Format/Info : Advanced Video Codec
Format profile : High@L4.1
Format settings, CABAC : Yes
Format settings, ReFrames : 4 frames
Codec ID : V_MPEG4/ISO/AVC
Duration : 2h 10mn
Bit rate : 7 260 Kbps
Width : 1 920 pixels
Height : 872 pixels
Display aspect ratio : 2.2:1
Frame rate mode : Constant
Frame rate : 23.976 fps
Color space : YUV
Chroma subsampling : 4:2:0
Bit depth : 8 bits
Scan type : Progressive
Bits/(Pixel*Frame) : 0.181
Stream size : 6.44 GiB (83%)
Title : Земля будущего / Tomorrowland (2015)
Writing library : x264 core 148 r2597 e86f3a1
Encoding settings : cabac=1 / ref=4 / deblock=1:-3:-3 / analyse=0x3:0x133 / me=umh / subme=10 / psy=1 / psy_rd=1.00:0.00 / mixed_ref=1 / me_range=32 / chroma_me=1 / trellis=2 / 8x8dct=1 / cqm=0 / deadzone=21,11 / fast_pskip=0 / chroma_qp_offset=-2 / threads=12 / lookahead_threads=2 / sliced_threads=0 / nr=0 / decimate=0 / interlaced=0 / bluray_compat=0 / constrained_intra=0 / bframes=8 / b_pyramid=2 / b_adapt=2 / b_bias=0 / direct=3 / weightb=1 / open_gop=0 / weightp=2 / keyint=240 / keyint_min=23 / scenecut=40 / intra_refresh=0 / rc_lookahead=80 / rc=2pass / mbtree=0 / bitrate=7260 / ratetol=1.0 / qcomp=0.70 / qpmin=0 / qpmax=69 / qpstep=4 / cplxblur=20.0 / qblur=0.5 / vbv_maxrate=50000 / vbv_bufsize=62500 / nal_hrd=none / filler=0 / ip_ratio=1.40 / pb_ratio=1.30 / aq=1:0.70
Language : English
Default : Yes
Forced : No

Audio #1
ID : 2
Format : AC-3
Format/Info : Audio Coding 3
Mode extension : CM (complete main)
Format settings, Endianness : Big
Codec ID : A_AC3
Duration : 2h 10mn
Bit rate mode : Constant
Bit rate : 640 Kbps
Channel(s) : 6 channels
Channel positions : Front: L C R, Side: L R, LFE
Sampling rate : 48.0 KHz
Bit depth : 16 bits
Compression mode : Lossy
Stream size : 595 MiB (7%)
Title : Дубляж, Blu-ray EUR
Language : Russian
Default : Yes
Forced : No

Audio #2
ID : 3
Format : AC-3
Format/Info : Audio Coding 3
Mode extension : CM (complete main)
Format settings, Endianness : Big
Codec ID : A_AC3
Duration : 2h 10mn
Bit rate mode : Constant
Bit rate : 640 Kbps
Channel(s) : 6 channels
Channel positions : Front: L C R, Side: L R, LFE
Sampling rate : 48.0 KHz
Bit depth : 16 bits
Compression mode : Lossy
Stream size : 595 MiB (7%)
Title : English
Language : English
Default : No
Forced : No

Text #1
ID : 4
Format : UTF-8
Codec ID : S_TEXT/UTF8
Codec ID/Info : UTF-8 Plain Text
Title : Russian (Forced)
Language : Russian
Default : Yes
Forced : No

Text #2
ID : 5
Format : UTF-8
Codec ID : S_TEXT/UTF8
Codec ID/Info : UTF-8 Plain Text
Title : Russian
Language : Russian
Default : No
Forced : No

Text #3
ID : 6
Format : UTF-8
Codec ID : S_TEXT/UTF8
Codec ID/Info : UTF-8 Plain Text
Title : English
Language : English
Default : No
Forced : No

Text #4
ID : 7
Format : UTF-8
Codec ID : S_TEXT/UTF8
Codec ID/Info : UTF-8 Plain Text
Title : English (SDH)
Language : English
Default : No
Forced : No

Text #5
ID : 8
Format : UTF-8
Codec ID : S_TEXT/UTF8
Codec ID/Info : UTF-8 Plain Text
Title : English (SDH Colored)
Language : English
Default : No
Forced : No

Menu
00:00:00.000 : :Chapter 01
00:16:12.012 : :Chapter 02
00:21:56.565 : :Chapter 03
00:28:52.188 : :Chapter 04
00:37:37.046 : :Chapter 05
00:46:35.417 : :Chapter 06
00:55:01.047 : :Chapter 07
01:11:48.470 : :Chapter 08
01:19:18.086 : :Chapter 09
01:26:45.033 : :Chapter 10
01:30:57.702 : :Chapter 11
01:38:05.296 : :Chapter 12
01:49:50.500 : :Chapter 13
01:56:11.297 : :Chapter 14
02:01:26.946 : :Chapter 15

pb.wtf



Скачать Земля будущего через торрент http://pic1.kartinco.top/images/10/bedbm.jpg Скачать фильм Земля будущего через торрент бесплантно в хорошем качестве Описание: Когда в руки к молодой девушке, жаждущей новых приключений, попадает загадочный предмет, открывающий доступ в параллельную ... 10 10 15
Info! Золотая раздача, скачанное не засчитывается.
Торрент: Зарегистрирован [2016-03-24 11:49] · скачан: 745 раз
Статус: T временная
Размер: 7.76 GB
Как cкачать? Как скачать Земля будущего через торрент | qTorrent

% Раздел Тема Автор DL S | L
Фильмы 2015 [DVDrip, WEB-DLRip, HDrip] [ 1.47 GB ] Земля будущего / Tomorrowland [2015 WEBRip] [Open Matte / Локализованный видеряд] killermax2013 Скачать
3 | 0
Фильмы (Blu-ray, BD-Remux, HDDVD) [ 34.73 GB ] Земля будущего / Tomorrowland [2015 BDRemux 1080p] - [] sheker187 Скачать
1 | 0
Фильмы (Blu-ray, BD-Remux, HDDVD) [ 28.78 GB ] Земля будущего / Tomorrowland [2015 BDRemux 1080p / ] Ворон Скачать
1 | 0
Фильмы 2015 [DVDrip, WEB-DLRip, HDrip] [ 2.05 GB ] Земля будущего / Tomorrowland [2015 BDRip-AVC] killermax2013 Скачать
1 | 0
Фильмы 2015 [DVDrip, WEB-DLRip, HDrip] [ 2.19 GB ] Земля будущего / Tomorrowland [2015 BDRip ""] coc900 Скачать
2 | 0
Фильмы 2015 [DVDrip, WEB-DLRip, HDrip] [ 1.46 GB ] Земля будущего / Tomorrowland [2015 Испания BDRip] DUB Twi7ter Скачать
2 | 0
Фильмы 2015 [DVDrip, WEB-DLRip, HDrip] [ 2.91 GB ] Земля будущего / Tomorrowland [2015 BDRip-AVC] DUB potroks Скачать
1 | 0

28-11-2019 20:33  

Отключить всю рекламу на сайте

24-03-2016 12:13 Земля будущего Скачать торрент  

битрейта маловато для такого разрешения,будет поглащен при выходе более качественного рипа
Запрет на размещение рипов ненадлежащего качества в разделе HD Video+ Доп. требование.

Цитата:

1080p с AR 2.4, 2.35 — 8000 kbps

pb.wtf



    Дорогой пользователь! Огромная просьба, поблагодарите релизера, оцените раздачу и оставьте свои комментарий, если Вы скачали Земля будущего через торрент бесплатно! Внесите свою лепту в развитие PiratBit!
    Комментировать посты могут только пользователи прошедшие не сложную регистрацию
    Показать сообщения:    

    Земля будущего через торрент
    Скачать бесплатно Земля будущего
    Земля будущего скачать торрент
    Земля будущего смотреть онлайн
    Cкачать фильм Земля будущего бесплатно
    Земля будущего скачать торрент в хорошем качестве
    Земля будущего смотреть онлайн бесплатно в хорошем качестве


    Вы не можете начинать темы
    Вы не можете отвечать на сообщения
    Вы не можете редактировать свои сообщения
    Вы не можете удалять свои сообщения
    Вы не можете голосовать в опросах
    Вы не можете прикреплять файлы к сообщениям
    Вы можете скачивать файлы