Всегда рабочее зеркало без VPN и Proxy просто перед .vidak.icu напиши любое слово или цифру, Пример http://n8bs.vidak.icu

MVO

2 сезон

2 сезон

1

1 сезон

iTunes

2 сезон

13

1 сезон

Распродажа

pack

Рекомендуем

Пиратка

30

ВАЖНО

RePack

MK11

RePack

jed

RePack

fifa19

RePack

RDR2

RePack

NEED FOR SPEED™ PAYBACK

Кинопоиск HD

6 сезон

 Острые козырьки 6 сезон

Все сериалы

все сериалы на PB.wtf

RePack

FAR CRY 5

Anonymous, нам критически не хватает 5601 руб. на оплату серверов и переферии за Апрель, помоги нам пожалуйста, вся надежда только на тебя. В благодарность мы отключим тебе всю рекламу на сайте!

×
  
Magnet ссылка

Мистер Холмс / Mr. Holmes (Билл Кондон / Bill Condon) [2015, драма, детектив, BDRip-AVC от potroks] MVO [iTunes] pb.wtf

Мистер Холмс через торрент pb.wtf

Размер: 1.41 GB | Добавлен: 6 лет 1 мес. назад | Торрент скачан:372 раза
Смотреть онлайн Мистер Холмс | Скачать    Ребята, помогите собрать деньги на оплату серверов!!!

24-03-2016 20:05 Мистер Холмс Скачать торрент  

Мистер Холмс / Mr. Holmes
«The man behind the myth»
Год выпуска: 2015
Страна: Великобритания, США / BBC Films, AI-Film...
Жанр: драма, детектив
Продолжительность: 01:43:44
Перевод: Профессиональный (многоголосый) [iTunes]
Субтитры: русские
Навигация по главам: есть
Режиссер: Билл Кондон / Bill Condon
В ролях:

Иэн МакКеллен (Sherlock Holmes), Лора Линни (Mrs. Munro), Майло Паркер (Roger), Хироюки Санада (Tamiki Umezaki), Хэтти Морахэн (Ann Kelmot), Патрик Кеннеди (Thomas Kelmot), Роджер Аллам (Dr. Barrie), Филип Дэвис (Inspector Gilbert), Фрэнсис де ла Тур (Madame Schirmer), Чарльз Мэддокс (Oswald), Такако Акаши (Maya Umezaki), Zak Shukor (Masuo Umezaki)




Описание: Самый знаменитый в мире сыщик давно отошел от дел и проводит старость в тихой деревне, ухаживая за собственной пасекой. Однако ему по-прежнему не дают покоя воспоминания об одной женщине и её тайне, так и оставшейся нераскрытой. Во что бы то ни стало он решает найти разгадку дела, заставившего его уйти в отставку больше 30 лет назад.









Качество: BDRip-AVC
Формат: MKV
Видео кодек: AVC
Аудио кодек: AC3
Видео: 1016x424 (2.40:1), 1567 kbps, 23,976 fps, 0,152 bit/pixel
Аудио: AC3 / 5.1 / 48 kHz / 384 kbps / 16 bit

Код:

General
Unique ID                                : 218129177475334079851047843424349290944 (0xA41A26C65F76EE508A40124733F981C0)
Complete name                            : D:\Детектив\Mr.Holms.2015.RUS.BDRip.x264.by_potroks.mkv
Format                                   : Matroska
Format version                           : Version 4 / Version 2
File size                                : 1.41 GiB
Duration                                 : 1h 43mn
Overall bit rate                         : 1 951 Kbps
Movie name                               : Mr. Holmes (2015)
Encoded date                             : UTC 2016-03-24 18:07:35
Writing application                      : mkvmerge v5.9.0 ('On The Loose') built on Dec 15 2012 16:39:58
Writing library                          : libebml v1.3.0 + libmatroska v1.4.0

Video
ID                                       : 1
Format                                   : AVC
Format/Info                              : Advanced Video Codec
Format profile                           : High@L4.1
Format settings, CABAC                   : Yes
Format settings, ReFrames                : 12 frames
Codec ID                                 : V_MPEG4/ISO/AVC
Duration                                 : 1h 43mn
Bit rate                                 : 1 567 Kbps
Width                                    : 1 016 pixels
Height                                   : 424 pixels
Display aspect ratio                     : 2.40:1
Frame rate                               : 23.976 fps
Color space                              : YUV
Chroma subsampling                       : 4:2:0
Bit depth                                : 8 bits
Scan type                                : Progressive
Bits/(Pixel*Frame)                       : 0.152
Stream size                              : 1.11 GiB (78%)
Title                                    : potroks
Writing library                          : x264 core 148 r2665M a01e339
Encoding settings                        : cabac=1 / ref=12 / deblock=1:-2:-2 / analyse=0x3:0x133 / me=umh / subme=11 / psy=1 / psy_rd=1.05:0.05 / mixed_ref=1 / me_range=48 / chroma_me=1 / trellis=2 / 8x8dct=1 / cqm=0 / deadzone=21,11 / fast_pskip=0 / chroma_qp_offset=-3 / threads=9 / lookahead_threads=2 / sliced_threads=0 / nr=0 / decimate=1 / interlaced=0 / bluray_compat=0 / constrained_intra=0 / bframes=13 / b_pyramid=2 / b_adapt=2 / b_bias=0 / direct=3 / weightb=1 / open_gop=0 / weightp=2 / keyint=240 / keyint_min=23 / scenecut=40 / intra_refresh=0 / rc=2pass / mbtree=0 / bitrate=1567 / ratetol=1.0 / qcomp=0.70 / qpmin=0 / qpmax=69 / qpstep=4 / cplxblur=20.0 / qblur=0.5 / ip_ratio=1.40 / pb_ratio=1.30 / aq=1:0.80
Language                                 : English
Default                                  : Yes
Forced                                   : No
Color primaries                          : BT.709-5, BT.1361, IEC 61966-2-4, SMPTE RP177
Transfer characteristics                 : BT.709-5, BT.1361
Matrix coefficients                      : BT.709-5, BT.1361, IEC 61966-2-4 709, SMPTE RP177

Audio
ID                                       : 2
Format                                   : AC-3
Format/Info                              : Audio Coding 3
Mode extension                           : CM (complete main)
Codec ID                                 : A_AC3
Duration                                 : 1h 43mn
Bit rate mode                            : Constant
Bit rate                                 : 384 Kbps
Channel(s)                               : 6 channels
Channel positions                        : Front: L C R, Side: L R, LFE
Sampling rate                            : 48.0 KHz
Bit depth                                : 16 bits
Compression mode                         : Lossy
Stream size                              : 285 MiB (20%)
Title                                    : MVO | DD 5.1 @ 384 kbps - iTunes
Language                                 : Russian
Default                                  : Yes
Forced                                   : No

Text
ID                                       : 3
Format                                   : UTF-8
Codec ID                                 : S_TEXT/UTF8
Codec ID/Info                            : UTF-8 Plain Text
Language                                 : Russian
Default                                  : No
Forced                                   : No

Menu
00:00:00.000                             : en:Chapter 01
00:07:28.906                             : en:Chapter 02
00:13:13.501                             : en:Chapter 03
00:17:30.924                             : en:Chapter 04
00:26:18.910                             : en:Chapter 05
00:33:56.576                             : en:Chapter 06
00:39:33.913                             : en:Chapter 07
00:45:14.753                             : en:Chapter 08
00:53:35.128                             : en:Chapter 09
00:59:44.789                             : en:Chapter 10
01:05:43.981                             : en:Chapter 11
01:14:05.232                             : en:Chapter 12
01:24:24.350                             : en:Chapter 13
01:29:30.406                             : en:Chapter 14
01:34:31.248                             : en:Chapter 15
01:39:47.815                             : en:Chapter 16

pb.wtf



Скачать Мистер Холмс через торрент http://i76.fastpic.ru/big/2016/0324/a4/7b3da0e1a44a46ff5b7cc3c02fd8caa4.png Скачать, смотреть онлайн Мистер Холмс бесплантно в хорошем качестве Описание: Самый знаменитый в мире сыщик давно отошел от дел и проводит старость в тихой деревне, ухаживая за собственной пасекой. Однако ... 9.6 10 11
Info! Золотая раздача, скачанное не засчитывается.
Торрент: Зарегистрирован [2016-03-24 20:05] · скачан: 372 раз
Статус: √ проверено
Размер: 1.41 GB
Как cкачать? Как скачать Мистер Холмс через торрент | UTorrent

% Раздел Тема Автор DL S | L
Фильмы 2015 [DVDrip, WEB-DLRip, HDrip] [ 1.41 GB ] Мистер Холмс / Mr. Holmes [2015 BDRip-AVC от sokol_ok] MVO sokol_ok Скачать
2 | 0
Фильмы 2015 [DVDrip, WEB-DLRip, HDrip] [ 748 MB ] Мистер Холмс / Mr. Holmes [2015 HDRip by _Один_777] MVO () Один 777 Скачать
1 | 0
Фильмы 2015 [DVDrip, WEB-DLRip, HDrip] [ 2.04 GB ] Мистер Холмс / Mr. Holmes [2015 HDRip многоголосый закадровый ""] coc900 Скачать
1 | 0
Фильмы 2015 [DVDrip, WEB-DLRip, HDrip] [ 1.37 GB ] Мистер Холмс / Mr. Holmes [2015 HDRip] MVO Ворон Скачать
1 | 0
Фильмы с авторской озвучкой [ 4.37 GB ] Мистер Холмс / Mr. Holmes [2015 BDRip 720p от _denis_100 / NNNB] Авторский _denis_100 Скачать
1 | 0
R.G. Resident & PiratVoice - Фильмы, Видео [ 1.46 GB ] Мистер Холмс / Mr. Holmes [2015 BDRip-AVC Авторский Ю.Сербин] R.G.Resident schultz Скачать
1 | 0
Фильмы без перевода [ 1.41 GB ] Мистер Холмс / Mr. Holmes [2015 HDRip] [Sub] killermax2013 Скачать
1 | 0

28-11-2019 20:33  

Отключить всю рекламу на сайте

24-03-2016 23:48 Мистер Холмс Скачать торрент  

вот это рейтинг 6.66 xDpb.wtf



    Дорогой пользователь! Огромная просьба, поблагодарите релизера, оцените раздачу и оставьте свои комментарий, если Вы скачали Мистер Холмс через торрент бесплатно!
    Комментировать посты могут только пользователи прошедшие не сложную регистрацию
    Показать сообщения:    

    Мистер Холмс через торрент
    Скачать бесплатно Мистер Холмс
    Мистер Холмс скачать торрент
    Мистер Холмс смотреть онлайн
    Cкачать фильм Мистер Холмс бесплатно
    Мистер Холмс скачать торрент в хорошем качестве
    Мистер Холмс смотреть онлайн бесплатно в хорошем качестве


    Вы не можете начинать темы
    Вы не можете отвечать на сообщения
    Вы не можете редактировать свои сообщения
    Вы не можете удалять свои сообщения
    Вы не можете голосовать в опросах
    Вы не можете прикреплять файлы к сообщениям
    Вы можете скачивать файлы