Присоединяйтесь к нам в Telegram!, здесь всегда актуальный адрес сайта, оперативная поддержка и многое другое!!

>

5.9

iTunes

7.4

iTunes

9.4

1 сезон

1

7.4

2 сезон

7.2

iTunes

7.3

1 сезон

13

6.1

iTunes

8.3

GOG

30

ULTIMATE

pack

9.9

Лицензия

ВАЖНО

ИГРА 18+

pack

7.3

RePack

MK11

7.7

RePack

jed

7.8

RePack

fifa19

8.5

RePack

RDR2

RePack

NEED FOR SPEED™ PAYBACK

5 сезон

9 сезон

Бесстыжие 9 сезон

Все сериалы

все сериалы на PB.wtf

RePack

FAR CRY 5

Anonymous, доброе утро, мы катастрофически не успеваем собрать деньги на оплату серверов, помогите нам пожалуйста 5,10,15р., для нас важна любая помощь . В качестве благодарности мы отключим Вам всю рекламу на сайте (укажите свой ник в строку Ваше имя)!

×
  
Magnet ссылка

NaЯ - Стриптиз [2015 г., Pop, HDTVRip 1080p] pb.wtf

NaЯ - Стриптиз через торрент pb.wtf

Размер: 267 MB | Добавлен: 5 лет 8 мес. назад | Торрент скачан:170 раз
Смотреть онлайн NaЯ - Стриптиз | Скачать    Ребята, помогите собрать деньги на оплату серверов!!!

24-03-2016 20:05 NaЯ - Стриптиз Скачать торрент  

NaЯ - Стриптиз
Год выпуска: 2015
Жанр: Pop
Продолжительность: 00:03:36
Качество:HDTVRip 1080p
Формат: MPEG4
Видео кодек: AVC
Аудио кодек:AAC
Видео: MPEG4 AVC, 1920x1080, 25,000 fps, 10,0 Mbit / s
Аудио#1: AAC 48,0 kHz, 2 ch, 317 kbps
Общее
Полное имя : NaЯ - Стриптиз.mp4
Формат : MPEG-4
Профиль формата : Base Media / Version 2
Идентификатор кодека : mp42
Размер файла : 267 Мбайт
Продолжительность : 3 м. 36 с.
Режим общего битрейта : Переменный
Общий поток : 10,4 Мбит/сек
Дата кодирования : UTC 2015-11-12 14:29:49
Дата пометки : UTC 2015-11-12 14:29:51
©TIM : 00:00:00:00
©TSC : 25
©TSZ : 1

Видео
Идентификатор : 1
Формат : AVC
Формат/Информация : Advanced Video Codec
Профиль формата : Main@L4.1
Параметр CABAC формата : Да
Параметр ReFrames формата : 3 кадра
Идентификатор кодека : avc1
Идентификатор кодека/Информация : Advanced Video Coding
Продолжительность : 3 м. 36 с.
Битрейт : 10,0 Мбит/сек
Ширина : 1920 пикселей
Высота : 1080 пикселей
Соотношение сторон : 16:9
Режим частоты кадров : Постоянный
Частота кадров : 25,000 кадров/сек
Стандарт вещания : PAL
Цветовое пространство : YUV
Субдискретизация насыщенности : 4:2:0
Битовая глубина : 8 бит
Тип развёртки : Прогрессивная
Бит/(Пиксели*Кадры) : 0.193
Размер потока : 259 Мбайт (97%)
Язык : English
Дата кодирования : UTC 2015-11-12 14:29:49
Дата пометки : UTC 2015-11-12 14:29:49
Основные цвета : BT.709
Характеристики трансфера : BT.709
Коэффициенты матрицы : BT.709

Аудио
Идентификатор : 2
Формат : AAC
Формат/Информация : Advanced Audio Codec
Профиль формата : LC
Идентификатор кодека : 40
Продолжительность : 3 м. 36 с.
Продолжительность оригинала : 3 м. 36 с.
Вид битрейта : Переменный
Битрейт : 317 Кбит/сек
Максимальный битрейт : 467 Кбит/сек
Каналы : 2 канала
Расположение каналов : Front: L R
Частота : 48,0 КГц
Метод сжатия : С потерями
Задержка видео : 40 мс.
Размер потока : 8,20 Мбайт (3%)
Размер потока оригинала : 8,20 Мбайт (3%)
Язык : English
Дата кодирования : UTC 2015-11-12 14:29:49
Дата пометки : UTC 2015-11-12 14:29:49
pb.wtf



Скачать NaЯ - Стриптиз через торрент http://s020.radikal.ru/i703/1603/0e/4838433acf41.jpg Скачать, смотреть онлайн NaЯ - Стриптиз [2015 г., Pop, HDTVRip 1080p] бесплантно в хорошем качестве Год выпуска: 2015Жанр: PopПродолжительность: ... 10 10 2
Торрент: Зарегистрирован [2016-03-24 20:05] · скачан: 170 раз
Статус: √ проверено
Размер: 267 MB
Как cкачать? Как скачать NaЯ - Стриптиз через торрент | UTorrent

28-11-2019 20:33  

Отключить всю рекламу на сайте

    Дорогой пользователь! Огромная просьба, поблагодарите релизера, оцените раздачу и оставьте свои комментарий, если Вы скачали NaЯ - Стриптиз через торрент бесплатно!
    Комментировать посты могут только пользователи прошедшие не сложную регистрацию
    Показать сообщения:    

    NaЯ - Стриптиз через торрент
    Скачать бесплатно NaЯ - Стриптиз
    NaЯ - Стриптиз скачать торрент
    NaЯ - Стриптиз смотреть онлайн
    Cкачать фильм NaЯ - Стриптиз бесплатно
    NaЯ - Стриптиз скачать торрент в хорошем качестве
    NaЯ - Стриптиз смотреть онлайн бесплатно в хорошем качестве


    Вы не можете начинать темы
    Вы не можете отвечать на сообщения
    Вы не можете редактировать свои сообщения
    Вы не можете удалять свои сообщения
    Вы не можете голосовать в опросах
    Вы не можете прикреплять файлы к сообщениям
    Вы можете скачивать файлы