2 сезон

iTunes

MVO

1

2 сезон

iTunes

iTunes

1 сезон

RePack

30

Новинка

ВАЖНО

ИГРА 18+

pack

RePack

MK11
pack

Легкие деньги

RePack

jed

RePack

fifa19

RePack

RDR2

RePack

NEED FOR SPEED™ PAYBACK

4 сезон

9 сезон

Бесстыжие 9 сезон

Все сериалы

все сериалы на PB.wtf

RePack

FAR CRY 5

Anonymous, доброй ночи, мы не успеваем собрать деньги на оплату серверов за декабрь и январь, помогите нам пожалуйста в это трудное время. В качестве благодарности мы отключим Вам всю рекламу на сайте (укажите свой ник в строку Ваше имя)!

×
  
Magnet ссылка

Инфинити - Как тебя звать [2015 г., Pop, HDTVRip 1080p] pb.wtf

Инфинити - Как тебя звать через торрент pb.wtf

Размер: 603 MB | Добавлен: 4 года 10 мес. назад | Торрент скачан:69 раз
Скачать  

24-03-2016 20:21 Инфинити - Как тебя звать Скачать торрент  

Инфинити - Как тебя звать
Год выпуска: 2015
Жанр: Pop
Продолжительность: 00:03:34
Качество:HDTVRip 1080p
Формат: MPEG4
Видео кодек: AVC
Аудио кодек:AAC
Видео: MPEG4 AVC, 1920x1080, 25,000 fps, 23,2 Mbit / s
Аудио#1: AAC 48,0 kHz, 2 ch, 317 kbps
Общее
Полное имя : Инфинити - Как тебя звать.mp4
Формат : MPEG-4
Профиль формата : Base Media / Version 2
Идентификатор кодека : mp42
Размер файла : 603 Мбайт
Продолжительность : 3 м. 34 с.
Режим общего битрейта : Переменный
Общий поток : 23,6 Мбит/сек
Дата кодирования : UTC 2015-12-16 16:09:20
Дата пометки : UTC 2015-12-16 16:09:27
©TIM : 00:00:00:00
©TSC : 25
©TSZ : 1

Видео
Идентификатор : 1
Формат : AVC
Формат/Информация : Advanced Video Codec
Профиль формата : Main@L4.2
Параметр CABAC формата : Да
Параметр ReFrames формата : 3 кадра
Идентификатор кодека : avc1
Идентификатор кодека/Информация : Advanced Video Coding
Продолжительность : 3 м. 34 с.
Вид битрейта : Постоянный
Битрейт : 23,2 Мбит/сек
Номинальный битрейт : 25,5 Мбит/сек
Ширина : 1920 пикселей
Высота : 1080 пикселей
Соотношение сторон : 16:9
Режим частоты кадров : Постоянный
Частота кадров : 25,000 кадров/сек
Стандарт вещания : PAL
Цветовое пространство : YUV
Субдискретизация насыщенности : 4:2:0
Битовая глубина : 8 бит
Тип развёртки : Прогрессивная
Бит/(Пиксели*Кадры) : 0.448
Размер потока : 594 Мбайт (99%)
Язык : English
Дата кодирования : UTC 2015-12-16 16:09:20
Дата пометки : UTC 2015-12-16 16:09:20

Аудио
Идентификатор : 2
Формат : AAC
Формат/Информация : Advanced Audio Codec
Профиль формата : LC
Идентификатор кодека : 40
Продолжительность : 3 м. 34 с.
Продолжительность оригинала : 3 м. 34 с.
Вид битрейта : Переменный
Битрейт : 317 Кбит/сек
Максимальный битрейт : 421 Кбит/сек
Каналы : 2 канала
Расположение каналов : Front: L R
Частота : 48,0 КГц
Метод сжатия : С потерями
Размер потока : 8,12 Мбайт (1%)
Размер потока оригинала : 8,12 Мбайт (1%)
Язык : English
Дата кодирования : UTC 2015-12-16 16:09:20
Дата пометки : UTC 2015-12-16 16:09:20
pb.wtf



Скачать Инфинити - Как тебя звать через торрент http://s018.radikal.ru/i516/1603/ea/43b10f335ce3.jpg Скачать фильм Инфинити - Как тебя звать [2015 г., Pop, HDTVRip 1080p]через торрент бесплантно в хорошем качестве Год выпуска: 2015Жанр: PopПродолжительность: ... 8.7 10 3
Торрент: Зарегистрирован [2016-03-24 20:21] · скачан: 69 раз
Статус: √ проверено
Размер: 603 MB
Как cкачать? Как скачать Инфинити - Как тебя звать через торрент | UTorrent

% Раздел Тема Автор DL S | L
Клипы [ 262 MB ] Инфинити - Как тебя звать [2015 Pop WEB-DL 1080p] opupokin Скачать
1 | 0

28-11-2019 20:33  

Отключить всю рекламу на сайте

11-08-2016 19:07 Инфинити - Как тебя звать Скачать торрент  

Спасибо, за клипец. Инфи прекрасна ! pb.wtf



    Дорогой пользователь! Огромная просьба, поблагодарите релизера, оцените раздачу и оставьте свои комментарий, если Вы скачали Инфинити - Как тебя звать через торрент бесплатно! Внесите свою лепту в развитие PiratBit!
    Комментировать посты могут только пользователи прошедшие не сложную регистрацию
    Показать сообщения:    

    Инфинити - Как тебя звать через торрент
    Скачать бесплатно Инфинити - Как тебя звать
    Инфинити - Как тебя звать скачать торрент
    Инфинити - Как тебя звать смотреть онлайн
    Cкачать фильм Инфинити - Как тебя звать бесплатно
    Инфинити - Как тебя звать скачать торрент в хорошем качестве
    Инфинити - Как тебя звать смотреть онлайн бесплатно в хорошем качестве


    Вы не можете начинать темы
    Вы не можете отвечать на сообщения
    Вы не можете редактировать свои сообщения
    Вы не можете удалять свои сообщения
    Вы не можете голосовать в опросах
    Вы не можете прикреплять файлы к сообщениям
    Вы можете скачивать файлы