2 сезон

iTunes

MVO

1

2 сезон

iTunes

iTunes

1 сезон

RePack

30

Новинка

ВАЖНО

ИГРА 18+

pack

RePack

MK11
pack

Легкие деньги

RePack

jed

RePack

fifa19

RePack

RDR2

RePack

NEED FOR SPEED™ PAYBACK

4 сезон

9 сезон

Бесстыжие 9 сезон

Все сериалы

все сериалы на PB.wtf

RePack

FAR CRY 5

Anonymous, доброй ночи, мы не успеваем собрать деньги на оплату серверов за декабрь и январь, помогите нам пожалуйста в это трудное время. В качестве благодарности мы отключим Вам всю рекламу на сайте (укажите свой ник в строку Ваше имя)!

×
  
Magnet ссылка

Shakira - Nunca Me Acurdo de Olvidarte [2014 г., Pop, HDTVRip 1080p] pb.wtf

Shakira - Nunca Me Acurdo de Olvidarte через торрент pb.wtf

Размер: 211 MB | Добавлен: 4 года 9 мес. назад | Торрент скачан:45 раз
Скачать  

24-03-2016 20:46 Shakira - Nunca Me Acurdo de Olvidarte Скачать торрент  

Shakira - Nunca Me Acurdo de Olvidarte
Год выпуска: 2014
Жанр: Pop
Продолжительность: 00:03:27
Качество:HDTVRip 1080p
Формат: MPEG4
Видео кодек: AVC
Аудио кодек:AAC
Видео: MPEG4 AVC, 1920x1080, 23,976 fps, 8229 kbps
Аудио#1: AAC 48,0 kHz, 2 ch, 317 kbps
Общее
Полное имя : Shakira - Nunca Me Acurdo de Olvidarte.mp4
Формат : MPEG-4
Профиль формата : Base Media / Version 2
Идентификатор кодека : mp42
Размер файла : 211 Мбайт
Продолжительность : 3 м. 27 с.
Режим общего битрейта : Переменный
Общий поток : 8550 Кбит/сек

Видео
Идентификатор : 1
Формат : AVC
Формат/Информация : Advanced Video Codec
Профиль формата : Baseline@L4.1
Параметр CABAC формата : Нет
Параметр ReFrames формата : 1 кадр
Параметр GOP формата : M=1, N=71
Идентификатор кодека : avc1
Идентификатор кодека/Информация : Advanced Video Coding
Продолжительность : 3 м. 27 с.
Продолжительность оригинала : 3 м. 27 с.
Вид битрейта : Переменный
Битрейт : 8229 Кбит/сек
Максимальный битрейт : 16,0 Мбит/сек
Ширина : 1920 пикселей
Высота : 1080 пикселей
Соотношение сторон : 16:9
Режим частоты кадров : Переменный
Частота кадров : 23,976 кадра/сек
Минимальная частота кадров : 23,974 кадра/сек
Максимальная частота кадров : 23,981 кадра/сек
Цветовое пространство : YUV
Субдискретизация насыщенности : 4:2:0
Битовая глубина : 8 бит
Тип развёртки : Прогрессивная
Бит/(Пиксели*Кадры) : 0.166
Размер потока : 204 Мбайт (96%)
Размер потока оригинала : 204 Мбайт (96%)
Язык : English
mdhd_Duration : 207499
Основные цвета : BT.709
Характеристики трансфера : BT.709
Коэффициенты матрицы : BT.709

Аудио
Идентификатор : 2
Формат : AAC
Формат/Информация : Advanced Audio Codec
Профиль формата : LC
Идентификатор кодека : 40
Продолжительность : 3 м. 27 с.
Продолжительность оригинала : 3 м. 27 с.
Вид битрейта : Переменный
Битрейт : 317 Кбит/сек
Каналы : 2 канала
Расположение каналов : Front: L R
Частота : 48,0 КГц
Метод сжатия : С потерями
Размер потока : 7,85 Мбайт (4%)
Размер потока оригинала : 7,85 Мбайт (4%)
Язык : English
mdhd_Duration : 207488
pb.wtf



Скачать Shakira - Nunca Me Acurdo de Olvidarte через торрент http://s012.radikal.ru/i319/1603/80/d6cdc6530207.jpg Скачать фильм Shakira - Nunca Me Acurdo de Olvidarte [2014 г., Pop, HDTVRip 1080p]через торрент бесплантно в хорошем качестве Год выпуска: 2014Жанр: PopПродолжительность: ... 10 10 1
Торрент: Зарегистрирован [2016-03-24 20:46] · скачан: 45 раз
Статус: √ проверено
Размер: 211 MB
Как cкачать? Как скачать Shakira - Nunca Me Acurdo de Olvidarte через торрент | UTorrent

28-11-2019 20:33  

Отключить всю рекламу на сайте

    Дорогой пользователь! Огромная просьба, поблагодарите релизера, оцените раздачу и оставьте свои комментарий, если Вы скачали Shakira - Nunca Me Acurdo de Olvidarte через торрент бесплатно! Внесите свою лепту в развитие PiratBit!
    Комментировать посты могут только пользователи прошедшие не сложную регистрацию
    Показать сообщения:    

    Shakira - Nunca Me Acurdo de Olvidarte через торрент
    Скачать бесплатно Shakira - Nunca Me Acurdo de Olvidarte
    Shakira - Nunca Me Acurdo de Olvidarte скачать торрент
    Shakira - Nunca Me Acurdo de Olvidarte смотреть онлайн
    Cкачать фильм Shakira - Nunca Me Acurdo de Olvidarte бесплатно
    Shakira - Nunca Me Acurdo de Olvidarte скачать торрент в хорошем качестве
    Shakira - Nunca Me Acurdo de Olvidarte смотреть онлайн бесплатно в хорошем качестве


    Вы не можете начинать темы
    Вы не можете отвечать на сообщения
    Вы не можете редактировать свои сообщения
    Вы не можете удалять свои сообщения
    Вы не можете голосовать в опросах
    Вы не можете прикреплять файлы к сообщениям
    Вы можете скачивать файлы