Ссылка на приватное зеркало нашего сайта всего за 1$. Внимание количество ограничено!!!

2 сезон

iTunes

1 сезон

1

2 сезон

2 сезон

iTunes

1 сезон

RePack

30

Новинка

ВАЖНО

ИГРА 18+

pack

RePack

MK11
pack

Забери бонус

RePack

jed

!!Акция!!

Alien_Rage

RePack

fifa19

RePack

Assassins Creed: Odyssey

RePack

NEED FOR SPEED™ PAYBACK

4 сезон

9 сезон

Бесстыжие 9 сезон

Все сериалы

все сериалы на PB.wtf

RePack

FAR CRY 5
  

Олух / Баскетс / Baskets / Сезон: 1 / Серия 1-10 из 10 (Джонатан Крисел) [2016, драма, комедия, WEB-DLRip] MVO BaibaKo pb.wtf

Олух через торрент pb.wtf

Размер: 3.41 GB | Добавлен: 4 года 8 мес. назад | Торрент скачан:41 раз
Скачать  

25-03-2016 13:24 Олух Скачать торрент  

Олух / Баскетс / Baskets«A clown will rise»

Год выпуска: 2016
Страна: США
Жанр: драма, комедия
Продолжительность: ~ 00:28:00 x 10
Перевод: Многоголосое профессиональное закадровое озвучание NewStudio
Реклама: В релизе присутствует реклама казино




Режиссер: Джонатан Крисел
Сценарий: Луис С.К., Зак Галифианакис, Джонатан Крисел
Продюссер: Кайл Сигал, Луис С.К., Анна Докоза
Оператор: Кристиан Спренгер
Художник: Тайлер Б. Робинсон, Эрик Шуновер, Шулер Теллин
Монтаж: Майкл Джиамбра, Иван Виктор




Сезон : 1
Эпизод: 1-10 из 10




Премьера в мире: 21 января 2016









В ролях:


Зак Галифианакис, Луи Андерсон, Эрнест Адамс, Малия Пайлс, Том Проктер, Эллен Д. Уильямс, Крис МакЛафлин, Дэн Гилвзан





Описание: Потерпев неудачу в престижном французском учебном учреждении для клоунов, Чип Олух не теряет надежды стать профессиональным клоуном..




Качество: WEB-DLRip
Формат: AVI
Видео кодек: XviD
Аудио кодек: Mp3
Видео: XviD / 720x400 / 23.976 fps / ~ 1500 kbps
Аудио#2: Русский - Mp3 / 48.0 KHz / 2 ch / 128 kbps
Аудио#3: Английский - Mp3 / 48.0 KHz / 2 ch / 128 kbps
Субтитры: Нет






скриншот   скриншот   скриншот   скриншот   скриншот   скриншот   скриншот   скриншот  


General
Complete name : D:\Baskets.s01.WEBDLRip\Baskets.s01e01.WEBDLRip.NewStudio.TV.avi
Format : AVI
Format/Info : Audio Video Interleave
File size : 349 MiB
Duration : 28mn 17s
Overall bit rate : 1 725 Kbps
Writing application : VirtualDubMod 1.5.10.2 (build 2540/release)
Writing library : VirtualDubMod build 2540/release

Video #0
ID : 0
Format : MPEG-4 Visual
Format profile : Advanced Simple@L5
Format settings, BVOP : 2
Format settings, QPel : No
Format settings, GMC : No warppoints
Format settings, Matrix : Default (MPEG)
Codec ID : XVID
Codec ID/Hint : XviD
Duration : 28mn 17s
Bit rate : 1 455 Kbps
Width : 720 pixels
Height : 400 pixels
Display aspect ratio : 16:9
Frame rate : 23.976 fps
Color space : YUV
Chroma subsampling : 4:2:0
Bit depth : 8 bits
Scan type : Progressive
Compression mode : Lossy
Bits/(Pixel*Frame) : 0.211
Stream size : 294 MiB (84%)
Writing library : XviD 73

Audio #1
ID : 1
Format : MPEG Audio
Format version : Version 1
Format profile : Layer 3
Codec ID : 55
Codec ID/Hint : MP3
Duration : 28mn 17s
Bit rate mode : Constant
Bit rate : 128 Kbps
Channel(s) : 2 channels
Sampling rate : 48.0 KHz
Compression mode : Lossy
Stream size : 25.9 MiB (7%)
Alignment : Aligned on interleaves
Interleave, duration : 42 ms (1.00 video frame)
Interleave, preload duration : 504 ms

Audio #2
ID : 2
Format : MPEG Audio
Format version : Version 1
Format profile : Layer 3
Mode : Joint stereo
Codec ID : 55
Codec ID/Hint : MP3
Duration : 28mn 17s
Bit rate mode : Constant
Bit rate : 128 Kbps
Channel(s) : 2 channels
Sampling rate : 48.0 KHz
Compression mode : Lossy
Stream size : 25.9 MiB (7%)
Alignment : Aligned on interleaves
Interleave, duration : 42 ms (1.00 video frame)
Interleave, preload duration : 504 ms
Writing library : LAME3.99r
Encoding settings : -m j -V 4 -q 2 -lowpass 17 -b 128
Что-то другое..

Зака Галифианакиса я открыла задолго до Мальчишника, с поры его стендапов, где он показал себя не просто как отличного комедианта, а еще и потрясающего актера, что было прекрасно продемонстрировано в Birdman..

Этот сериал, безусловно, никогда не будет претендовать на лавры самого смешного или успешного на ТВ.. Но лично я устала смотреть однообразные комедии, многие из которых не имеют ничего общего с настоящей жизнью.. Здесь нет смеха за кадром, здесь не держишься за живот от смеха.. Но его стоит смотреть исключительно на английском, чтобы понять все речевые обороты, которые доказывают, что сценарий писали остряки с отличным чувством юмора..

Зак великолепен, я наслаждаюсь каждой минутой созерцания его на экране..

Сюжет повествует о не особо удачливом клоуне, который, впрочем, искренне любит свою профессию. Остальные герои совершенно не красивы, по современным канонам, но каждый из них на своем месте и все это смотрится очень органично..


pb.wtf



Скачать Олух через торрент http://pic.kartinco.top/images/11/r7qna.jpg Скачать фильм Олух через торрент бесплантно в хорошем качестве Описание: Потерпев неудачу в престижном французском учебном учреждении для клоунов, Чип Олух не теряет надежды стать профессиональным ... 10 10 3
Торрент: Зарегистрирован [2016-03-25 13:54] · скачан: 41 раз
Статус: √ проверено
Размер: 3.41 GB
Как cкачать? Как скачать Олух через торрент | qTorrent

28-11-2019 20:33  

Отключить всю рекламу на сайте

    Дорогой пользователь! Огромная просьба, поблагодарите релизера, оцените раздачу и оставьте свои комментарий, если Вы скачали Олух через торрент бесплатно! Внесите свою лепту в развитие PiratBit!
    Комментировать посты могут только пользователи прошедшие не сложную регистрацию
    Показать сообщения:    

    Олух через торрент
    Скачать бесплатно Олух
    Олух скачать торрент
    Олух смотреть онлайн
    Cкачать фильм Олух бесплатно
    Олух скачать торрент в хорошем качестве
    Олух смотреть онлайн бесплатно в хорошем качестве


    Вы не можете начинать темы
    Вы не можете отвечать на сообщения
    Вы не можете редактировать свои сообщения
    Вы не можете удалять свои сообщения
    Вы не можете голосовать в опросах
    Вы не можете прикреплять файлы к сообщениям
    Вы можете скачивать файлы