Всегда рабочее зеркало без VPN и Proxy просто перед .vidak.icu напиши любое слово или цифру, Пример http://iuw9.vidak.icu

MVO

2 сезон

2 сезон

1

1 сезон

iTunes

2 сезон

13

1 сезон

Deluxe

pack

Рекомендуем

Пиратка

30

ВАЖНО

RePack

MK11

RePack

jed

RePack

fifa19

RePack

RDR2

RePack

NEED FOR SPEED™ PAYBACK

Кинопоиск HD

6 сезон

 Острые козырьки 6 сезон

Все сериалы

все сериалы на PB.wtf

RePack

FAR CRY 5

Anonymous, нам критически не хватает 5601 руб. на оплату серверов и переферии за Апрель, помоги нам пожалуйста, вся надежда только на тебя. В благодарность мы отключим тебе всю рекламу на сайте!

×
  
Magnet ссылка

Мистер Холмс / Mr. Holmes (Билл Кондон) [2015 г., драма, детектив, HDRip, Профессиональный многоголосый закадровый "iTunes"] pb.wtf

Мистер Холмс через торрент pb.wtf

Размер: 2.04 GB | Добавлен: 6 лет 1 мес. назад | Торрент скачан:488 раз
Смотреть онлайн Мистер Холмс | Скачать    Ребята, помогите собрать деньги на оплату серверов!!!

25-03-2016 18:11 Мистер Холмс Скачать торрент  

Мистер Холмс / Mr. Holmes
Год выпуска: 2015
Страна: Великобритания, США / AI-Film, See-Saw Films, AI-Film
Жанр: драма, детектив
Продолжительность: 01:43:44
Перевод: Профессиональный многоголосый закадровый (iTunes)

Режиссер: Билл Кондон

IMDB 7.00 (35 361)


В ролях: Иэн МакКеллен, Лора Линни, Майло Паркер, Хироюки Санада, Хэтти Морахэн, Патрик Кеннеди, Роджер Аллам, Филип Дэвис, Фрэнсис де ла Тур, Чарльз Мэддокс

Описание: Самый знаменитый в мире сыщик давно отошел от дел и проводит старость в тихой деревне, ухаживая за собственной пасекой. Однако ему по-прежнему не дают покоя воспоминания об одной женщине и её тайне, так и оставшейся нераскрытой. Во что бы то ни стало он решает найти разгадку дела, заставившего его уйти в отставку больше 30 лет назад.

Качество: HDRip
Формат: AVI
Видео кодек: XviD
Аудио кодек: AC3
Видео: MPEG4, DivX 5, 720x304 (2.35:1), 23.976 fps, 2 425 Kbps (0.462 bit/pixel)
Аудио: AC-3, 48.0 KHz, 6 ch, 384 Kbps, CBR
скриншот   скриншот   скриншот   скриншот   скриншот   скриншот  

Общее
Полное имя : F:\кино\Мистер Холмс.2015.HDRip.avi
Формат : AVI
Формат/Информация : Audio Video Interleave
Профиль формата : OpenDML
Размер файла : 2,04 Гбайт
Продолжительность : 1 ч. 43 м.
Общий поток : 2822 Кбит/сек
Программа кодирования : VirtualDubMod 1.5.10.3 | www.virtualdub-fr.org || (build 2550/release)
Библиотека кодирования : VirtualDubMod build 2550/release

Видео
Идентификатор : 0
Формат : MPEG-4 Visual
Профиль формата : Advanced Simple@L5
Параметр BVOP формата : 1
Параметр QPel формата : Нет
Параметр GMC формата : Без точки перехода
Параметр матрицы формата : Default (H.263)
Идентификатор кодека : DX50
Идентификатор кодека/Подсказка : DivX 5
Продолжительность : 1 ч. 43 м.
Битрейт : 2425 Кбит/сек
Ширина : 720 пикселей
Высота : 304 пикселя
Соотношение сторон : 2,35:1
Частота кадров : 23,976 (23976/1000) кадра/сек
Цветовое пространство : YUV
Субдискретизация насыщенности : 4:2:0
Битовая глубина : 8 бит
Тип развёртки : Прогрессивная
Метод сжатия : С потерями
Бит/(Пиксели*Кадры) : 0.462
Размер потока : 1,76 Гбайт (86%)
Библиотека кодирования : XviD 1.2.1 (UTC 2008-12-04)

Аудио
Идентификатор : 1
Формат : AC-3
Формат/Информация : Audio Coding 3
Расширение режима : CM (complete main)
Параметр Endianness формата : Big
Идентификатор кодека : 2000
Продолжительность : 1 ч. 43 м.
Вид битрейта : Постоянный
Битрейт : 384 Кбит/сек
Каналы : 6 каналов
Расположение каналов : Front: L C R, Side: L R, LFE
Частота : 48,0 КГц
Частота кадров : 31,250 кадров/сек (1536 spf)
Метод сжатия : С потерями
Размер потока : 285 Мбайт (14%)
Выравнивание : Разделение по промежуткам
Продолжительность промежутка : 42 мс. (1,00 видеокадр)
Время предзагрузки промежутка : 500 мс.

pb.wtf



Скачать Мистер Холмс через торрент https://pic.kartinco.top/images/11/qfbjc.jpg Скачать, смотреть онлайн Мистер Холмс бесплантно в хорошем качестве Описание: Самый знаменитый в мире сыщик давно отошел от дел и проводит старость в тихой деревне, ухаживая за собственной пасекой. Однако ... 9.4 10 18
Info! Золотая раздача, скачанное не засчитывается.
Торрент: Зарегистрирован [2016-03-25 18:11] · скачан: 488 раз
Статус: √ проверено
Размер: 2.04 GB
Как cкачать? Как скачать Мистер Холмс через торрент | UTorrent

% Раздел Тема Автор DL S | L
Фильмы 2015 [DVDrip, WEB-DLRip, HDrip] [ 1.41 GB ] Мистер Холмс / Mr. Holmes [2015 BDRip-AVC от sokol_ok] MVO sokol_ok Скачать
2 | 0
Фильмы 2015 [DVDrip, WEB-DLRip, HDrip] [ 748 MB ] Мистер Холмс / Mr. Holmes [2015 HDRip by _Один_777] MVO () Один 777 Скачать
1 | 0
Фильмы 2015 [DVDrip, WEB-DLRip, HDrip] [ 1.41 GB ] Мистер Холмс / Mr. Holmes [2015 BDRip-AVC] MVO potroks Скачать
1 | 0
Фильмы 2015 [DVDrip, WEB-DLRip, HDrip] [ 1.37 GB ] Мистер Холмс / Mr. Holmes [2015 HDRip] MVO Ворон Скачать
1 | 0
Фильмы с авторской озвучкой [ 4.37 GB ] Мистер Холмс / Mr. Holmes [2015 BDRip 720p от _denis_100 / NNNB] Авторский _denis_100 Скачать
1 | 0
R.G. Resident & PiratVoice - Фильмы, Видео [ 1.46 GB ] Мистер Холмс / Mr. Holmes [2015 BDRip-AVC Авторский Ю.Сербин] R.G.Resident schultz Скачать
1 | 0
Фильмы без перевода [ 1.41 GB ] Мистер Холмс / Mr. Holmes [2015 HDRip] [Sub] killermax2013 Скачать
1 | 0

28-11-2019 20:33  

Отключить всю рекламу на сайте

    Дорогой пользователь! Огромная просьба, поблагодарите релизера, оцените раздачу и оставьте свои комментарий, если Вы скачали Мистер Холмс через торрент бесплатно!
    Комментировать посты могут только пользователи прошедшие не сложную регистрацию
    Показать сообщения:    

    Мистер Холмс через торрент
    Скачать бесплатно Мистер Холмс
    Мистер Холмс скачать торрент
    Мистер Холмс смотреть онлайн
    Cкачать фильм Мистер Холмс бесплатно
    Мистер Холмс скачать торрент в хорошем качестве
    Мистер Холмс смотреть онлайн бесплатно в хорошем качестве


    Вы не можете начинать темы
    Вы не можете отвечать на сообщения
    Вы не можете редактировать свои сообщения
    Вы не можете удалять свои сообщения
    Вы не можете голосовать в опросах
    Вы не можете прикреплять файлы к сообщениям
    Вы можете скачивать файлы