Ссылка на приватное зеркало нашего сайта всего за 1$. Внимание количество ограничено!!!

2 сезон

iTunes

1 сезон

1

iTunes

iTunes

iTunes

1 сезон

RePack

30

ИГРА 18+

pack

ВАЖНО

!!Акция!!

Alien_RageХит недели

RePack

MK11
pack

Забери бонус

RePack

jed

!!Акция!!

Alien_Rage

RePack

fifa19

RePack

Assassins Creed: Odyssey

RePack

NEED FOR SPEED™ PAYBACK

4 сезон

9 сезон

Бесстыжие 9 сезон

Все сериалы

все сериалы на PB.wtf

RePack

FAR CRY 5
  

Муви 43 / Movie 43 (Стивен Брилл / Steven Brill, Питер Фаррелли / Peter Farrelly, Элизабет Бэнкс / Elizabeth Banks) [2013, комедия, BDRip 720p от potroks] DUB, AVO pb.wtf

Муви 43 через торрент pb.wtf

Размер: 5.75 GB | Добавлен: 4 года 6 мес. назад | Торрент скачан:242 раза
Скачать  

26-03-2016 13:56 Муви 43 Скачать торрент  

Муви 43 / Movie 43
«Самая отвязная комедия Нового года»
Год выпуска: 2013
Страна: США / Relativity Media, Virgin Produced...
Жанр: комедия
Продолжительность: 01:38:01
Перевод: Дубляж [BD RUS], Авторский (одноголосый) [Д.Пучков]
Субтитры: русские, английские
Навигация по главам: есть
Режиссер: Стивен Брилл / Steven Brill, Питер Фаррелли / Peter Farrelly, Элизабет Бэнкс / Elizabeth Banks
В ролях:

Хью Джекман (Davis (segment 'The Catch')), Кейт Уинслет (Beth (segment 'The Catch')), Наоми Уоттс (Samantha (segment 'Homeschooled')), Лив Шрайбер (Robert (segment 'Homeschooled')), Холли Берри (Emily (segment 'Truth or Dare')), Джерард Батлер (Leprechaun 1 & 2 (segment 'Happy Birthday')), Ричард Гир (Boss (segment 'iBabe')), Хлоя Грейс Морец (Amanda (segment 'Middleschool Date')), Элизабет Бэнкс (Amy (segment 'Beezel')), Джош Дюамель (Anson (segment 'Beezel')), Анна Фэрис (Vanessa (segment 'The Proposition')), Эмма Стоун (Veronica (segment 'Veronica'))
Описание: Два друга, Келвин и Джей Джей, загружают видео на ViewThisTUBE, но их друг Бакстер подшучивает над ними, накручивая просмотры их видео, и ребята решают отомстить ему, наполнив его компьютер вирусами из интернета. Келвин и Джей Джей придумывают легенду про фильм «Муви 43» - самый страшный фильм в мире. Этот фильм разыскивает ФБР и ЦРУ. Бакстер приходит к Келвину и Джей Джею и начинает искать фильм на запрещённом сайте.

Качество: BDRip 720p
Формат: MKV
Видео кодек: AVC
Аудио кодек: AC3
Видео: 1280x696 (1,85:1), 6493 kbps, 23,976 fps, 0,304 bit/pixel
Аудио №1: AC3 / 5.1 / 48 kHz / 640 kbps / 16 bit | DUB - Blu-Ray RUS
Аудио №2: AC3 / 5.1 / 48 kHz / 640 kbps / 16 bit | AVO - Д.Пучков
Аудио №3: AC3 / 5.1 / 48 kHz / 640 kbps / 16 bit | ENG

Код:

Общее
Уникальный идентификатор : 176130207491591287838211310192670440992 (0x848171AEB282586F83A99E5019427E20)
Полное имя : Muvi.43.2013.TRIPLE.BDRip.720p.by_potroks.mkv
Формат : Matroska
Версия формата : Version 4 / Version 2
Размер файла : 5,75 Гбайт
Продолжительность : 1 ч. 38 м.
Общий поток : 8403 Кбит/сек
Название фильма : Movie 43 (2013)
Дата кодирования : UTC 2016-03-26 07:36:23
Программа кодирования : mkvmerge v5.9.0 ('On The Loose') built on Dec 15 2012 16:39:58
Библиотека кодирования : libebml v1.3.0 + libmatroska v1.4.0

Видео
Идентификатор : 1
Формат : AVC
Формат/Информация : Advanced Video Codec
Профиль формата : High@L4.1
Параметр CABAC формата : Да
Параметр ReFrames формата : 9 кадров
Идентификатор кодека : V_MPEG4/ISO/AVC
Продолжительность : 1 ч. 38 м.
Битрейт : 6493 Кбит/сек
Ширина : 1280 пикселей
Высота : 696 пикселей
Соотношение сторон : 1,85:1
Режим частоты кадров : Постоянный
Частота кадров : 23,976 кадра/сек
Цветовое пространство : YUV
Субдискретизация насыщенности : 4:2:0
Битовая глубина : 8 бит
Тип развёртки : Прогрессивная
Бит/(Пиксели*Кадры) : 0.304
Размер потока : 4,32 Гбайт (75%)
Заголовок : potroks
Библиотека кодирования : x264 core 148 r2665M a01e339
Настройки программы : cabac=1 / ref=9 / deblock=1:-3:-3 / analyse=0x3:0x133 / me=umh / subme=11 / psy=1 / psy_rd=0.98:0.00 / mixed_ref=1 / me_range=48 / chroma_me=1 / trellis=2 / 8x8dct=1 / cqm=0 / deadzone=21,11 / fast_pskip=0 / chroma_qp_offset=-2 / threads=9 / lookahead_threads=2 / sliced_threads=0 / nr=0 / decimate=1 / interlaced=0 / bluray_compat=0 / constrained_intra=0 / bframes=10 / b_pyramid=2 / b_adapt=2 / b_bias=0 / direct=3 / weightb=1 / open_gop=0 / weightp=2 / keyint=240 / keyint_min=23 / scenecut=40 / intra_refresh=0 / rc=2pass / mbtree=0 / bitrate=6493 / ratetol=1.0 / qcomp=0.70 / qpmin=0 / qpmax=69 / qpstep=4 / cplxblur=20.0 / qblur=0.5 / ip_ratio=1.40 / pb_ratio=1.30 / aq=1:0.80
Язык : English
Default : Да
Forced : Нет
Цветовой диапазон : Limited
Основные цвета : BT.709
Характеристики трансфера : BT.709
Коэффициенты матрицы : BT.709

Аудио #1
Идентификатор : 2
Формат : AC-3
Формат/Информация : Audio Coding 3
Расширение режима : CM (complete main)
Параметр Endianness формата : Big
Идентификатор кодека : A_AC3
Продолжительность : 1 ч. 38 м.
Вид битрейта : Постоянный
Битрейт : 640 Кбит/сек
Каналы : 6 каналов
Расположение каналов : Front: L C R, Side: L R, LFE
Частота : 48,0 КГц
Метод сжатия : С потерями
Размер потока : 449 Мбайт (8%)
Заголовок : Dub | DD 5.1 @ 640 kbps - Blu-Ray RUS
Язык : Russian
Default : Да
Forced : Нет

Аудио #2
Идентификатор : 3
Формат : AC-3
Формат/Информация : Audio Coding 3
Расширение режима : CM (complete main)
Параметр Endianness формата : Big
Идентификатор кодека : A_AC3
Продолжительность : 1 ч. 38 м.
Вид битрейта : Постоянный
Битрейт : 640 Кбит/сек
Каналы : 6 каналов
Расположение каналов : Front: L C R, Side: L R, LFE
Частота : 48,0 КГц
Метод сжатия : С потерями
Размер потока : 449 Мбайт (8%)
Заголовок : AVO | DD 5.1 @ 640 kbps - D.Puchkov
Язык : Russian
Default : Нет
Forced : Нет

Аудио #3
Идентификатор : 4
Формат : AC-3
Формат/Информация : Audio Coding 3
Расширение режима : CM (complete main)
Параметр Endianness формата : Big
Идентификатор кодека : A_AC3
Продолжительность : 1 ч. 38 м.
Вид битрейта : Постоянный
Битрейт : 640 Кбит/сек
Каналы : 6 каналов
Расположение каналов : Front: L C R, Side: L R, LFE
Частота : 48,0 КГц
Метод сжатия : С потерями
Размер потока : 449 Мбайт (8%)
Заголовок : Original | DD 5.1 @ 640 kbps
Язык : English
Default : Нет
Forced : Нет

Текст #1
Идентификатор : 5
Формат : UTF-8
Идентификатор кодека : S_TEXT/UTF8
Идентификатор кодека/Информация : UTF-8 Plain Text
Язык : Russian
Default : Нет
Forced : Нет

Текст #2
Идентификатор : 6
Формат : UTF-8
Идентификатор кодека : S_TEXT/UTF8
Идентификатор кодека/Информация : UTF-8 Plain Text
Язык : English
Default : Нет
Forced : Нет

Меню
00:00:00.000 : :00:00:00.000
00:13:18.464 : :00:13:18.464
00:23:28.616 : :00:23:28.616
00:33:14.534 : :00:33:14.534
00:42:04.772 : :00:42:04.772
00:55:17.689 : :00:55:17.689
01:07:17.909 : :01:07:17.909
01:14:12.448 : :01:14:12.448
01:23:19.703 : :01:23:19.703
01:28:51.284 : :01:28:51.284

pb.wtf



Скачать Муви 43 через торрент http://i75.fastpic.ru/big/2016/0326/0c/3ecb95c5f250a68363070557ef94680c.png Скачать фильм Муви 43 через торрент бесплантно в хорошем качестве Описание: Два друга, Келвин и Джей Джей, загружают видео на ViewThisTUBE, но их друг Бакстер подшучивает над ними, накручивая просмотры их ... 9.2 10 14
Info! Золотая раздача, скачанное не засчитывается.
Торрент: Зарегистрирован [2016-03-26 13:56] · скачан: 242 раз
Статус: √ проверено
Размер: 5.75 GB
Как cкачать? Как скачать Муви 43 через торрент | qTorrent

28-11-2019 20:33  

Отключить всю рекламу на сайте

26-03-2016 20:11 Муви 43 Скачать торрент  

На один раз...pb.wtf



26-03-2016 20:38 Муви 43 Скачать торрент  

Я не к автору рилиза Голивуд более 100к выпускает шнягиpb.wtf



    Дорогой пользователь! Огромная просьба, поблагодарите релизера, оцените раздачу и оставьте свои комментарий, если Вы скачали Муви 43 через торрент бесплатно! Внесите свою лепту в развитие PiratBit!
    Комментировать посты могут только пользователи прошедшие не сложную регистрацию
    Показать сообщения:    

    Муви 43 через торрент
    Скачать бесплатно Муви 43
    Муви 43 скачать торрент
    Муви 43 смотреть онлайн
    Cкачать фильм Муви 43 бесплатно
    Муви 43 скачать торрент в хорошем качестве
    Муви 43 смотреть онлайн бесплатно в хорошем качестве


    Вы не можете начинать темы
    Вы не можете отвечать на сообщения
    Вы не можете редактировать свои сообщения
    Вы не можете удалять свои сообщения
    Вы не можете голосовать в опросах
    Вы не можете прикреплять файлы к сообщениям
    Вы можете скачивать файлы