Ссылка на приватное зеркало нашего сайта всего за 1$. Внимание количество ограничено!!!

2 сезон

iTunes

1 сезон

1

iTunes

iTunes

iTunes

1 сезон

RePack

30

ИГРА 18+

pack

ВАЖНО

!!Акция!!

Alien_RageХит недели

RePack

MK11
pack

Забери бонус

RePack

jed

!!Акция!!

Alien_Rage

RePack

fifa19

RePack

Assassins Creed: Odyssey

RePack

NEED FOR SPEED™ PAYBACK

4 сезон

9 сезон

Бесстыжие 9 сезон

Все сериалы

все сериалы на PB.wtf

RePack

FAR CRY 5
  

Сережка Казановы / Сезон: 1 / Серии 1-4 из 4 (Денис Елеонский) [2016, Россия, мелодрама, WEB-DL 1080p) pb.wtf

Сережка Казановы через торрент pb.wtf

Размер: 3.66 GB | Добавлен: 4 года 7 мес. назад | Торрент скачан:100 раз
Скачать  

27-03-2016 02:12 Сережка Казановы Скачать торрент  

Сережка Казановы


  • Год выпуска: 2016
  • Страна: Россия
  • Жанр: мелодрама
  • Продолжительность: 00:45:29 (Серия)
  • Перевод: Не требуется
  • Режиссер: Денис Елеонский
  • В ролях:

    Людмила Свитова (Марта), Сергей Марин (Дима), Михаил Пшеничный (Женя), Арина Лыкова, Наталья Высочанская, Егор Кутенков, Борис Хвошнянский, Елена Симонова, Светлана Глазырина (Ира), Владимир Трезубов (Артур), Вячеслав Шаблюк (мальчик на велосипеде), Степан Ратников (парень в кафе)


  • Учителю истории Жене Касаткину не везет с девушками. Однажды ему в руки попадает волшебный артефакт - Сережка Казановы, дающая возможность своему владельцу заполучить любую женщину, какую он только пожелает. Женя становится объектом женских грез и влюбляется в умопомрачительную красотку Лику. Но со временем он понимает, что его избранница поверхностна и пуста. Однако расстаться с Ликой не так-то просто, ведь она находится под действием Сережки Казановы. В конце концов Жене удается уйти от Лики и он понимает, что его настоящая любовь все время была рядом. Это Марта, девушка, которую Женя знал много лет и считал своим другом. Но Женя не хочет, чтобы Марта полюбила его из-за волшебной сережки, и пытается разными способами избавиться от артефакта. Но Сережка Казановы никак не хочет менять хозяина. С большим трудом Жене удается избавиться от ненавистной волшебной сережки и найти свое счастье с Мартой.
  • Рейтинг:



  • Качество: WEB-DL 1080p
  • Формат: :MKV
  • Видео кодек: AVC
  • Аудио кодек: AC3
  • Видео: 1920x1080 (16:9), 2642 kbps, 25 fps, 0,051 bpp
  • Аудио: 2.0 / 44 kHz / 192 kbps / 16 bit

    Код:

    General
    Unique ID                                : 292696774480497500356799372311809345754 (0xDC3359278D21522FDE61F863893DC8DA)
    Complete name                            : G:\Serezka.kazanovy.2016.WEB-DL1080p.Files-x\04.Serezka.kazanovy.2016.WEB-DL1080p.Files-x.mkv
    Format                                   : Matroska
    Format version                           : Version 4 / Version 2
    File size                                : 941 MiB
    Duration                                 : 45mn 29s
    Overall bit rate                         : 2 892 Kbps
    Writing application                      : Lavf56.25.101
    Writing library                          : Lavf56.25.101

    Video
    ID                                       : 1
    Format                                   : AVC
    Format/Info                              : Advanced Video Codec
    Format profile                           : High@L4.0
    Format settings, CABAC                   : Yes
    Format settings, ReFrames                : 2 frames
    Codec ID                                 : V_MPEG4/ISO/AVC
    Duration                                 : 45mn 29s
    Bit rate                                 : 2 643 Kbps
    Width                                    : 1 920 pixels
    Height                                   : 1 080 pixels
    Display aspect ratio                     : 16:9
    Frame rate mode                          : Variable
    Frame rate                               : 25.000 fps
    Color space                              : YUV
    Chroma subsampling                       : 4:2:0
    Bit depth                                : 8 bits
    Scan type                                : Progressive
    Bits/(Pixel*Frame)                       : 0.051
    Stream size                              : 860 MiB (91%)
    Default                                  : Yes
    Forced                                   : No

    Audio
    ID                                       : 2
    Format                                   : AC-3
    Format/Info                              : Audio Coding 3
    Mode extension                           : CM (complete main)
    Codec ID                                 : A_AC3
    Duration                                 : 45mn 29s
    Bit rate mode                            : Constant
    Bit rate                                 : 192 Kbps
    Channel(s)                               : 2 channels
    Channel positions                        : Front: L R
    Sampling rate                            : 44.1 KHz
    Bit depth                                : 16 bits
    Compression mode                         : Lossy
    Delay relative to video                  : 1mn 5s
    Stream size                              : 62.5 MiB (7%)
    Default                                  : Yes
    Forced                                   : No


    Скриншоты:



    pb.wtf



  • Скачать Сережка Казановы через торрент http://i4.imageban.ru/out/2016/03/27/0b812c87cd63b95780f48560aae8fb93.jpg Скачать фильм Сережка Казановы через торрент бесплантно в хорошем качестве qw.png Учителю истории Жене Касаткину не везет с девушками. Однажды ему в руки попадает волшебный артефакт - Сережка Казановы, дающая ... 5 10 1
    Info! Золотая раздача, скачанное не засчитывается.
    Торрент: Зарегистрирован [2016-03-27 02:12] · скачан: 100 раз
    Статус: √ проверено
    Размер: 3.66 GB
    Как cкачать? Как скачать Сережка Казановы через торрент | qTorrent

    % Раздел Тема Автор DL S | L
    Наши сериалы [ 2.15 GB ] Сережка Казановы / Сезон: 1 / Серии 1-4 из 4 [2016 Россия WEB-DLRip) GEKADOL Скачать
    1 | 0

    28-11-2019 20:33  

    Отключить всю рекламу на сайте

      Дорогой пользователь! Огромная просьба, поблагодарите релизера, оцените раздачу и оставьте свои комментарий, если Вы скачали Сережка Казановы через торрент бесплатно! Внесите свою лепту в развитие PiratBit!
      Комментировать посты могут только пользователи прошедшие не сложную регистрацию
      Показать сообщения:    

      Сережка Казановы через торрент
      Скачать бесплатно Сережка Казановы
      Сережка Казановы скачать торрент
      Сережка Казановы смотреть онлайн
      Cкачать фильм Сережка Казановы бесплатно
      Сережка Казановы скачать торрент в хорошем качестве
      Сережка Казановы смотреть онлайн бесплатно в хорошем качестве


      Вы не можете начинать темы
      Вы не можете отвечать на сообщения
      Вы не можете редактировать свои сообщения
      Вы не можете удалять свои сообщения
      Вы не можете голосовать в опросах
      Вы не можете прикреплять файлы к сообщениям
      Вы можете скачивать файлы