Присоединяйтесь к нам в Telegram!, здесь всегда актуальный адрес сайта, оперативная поддержка и многое другое!!

>

5.9

iTunes

7.4

iTunes

9.4

1 сезон

1

7.4

2 сезон

7.2

iTunes

7.3

1 сезон

13

6.1

iTunes

8.3

GOG

30

ULTIMATE

pack

9.9

Лицензия

ВАЖНО

ИГРА 18+

pack

7.3

RePack

MK11

7.7

RePack

jed

7.8

RePack

fifa19

8.5

RePack

RDR2

RePack

NEED FOR SPEED™ PAYBACK

5 сезон

9 сезон

Бесстыжие 9 сезон

Все сериалы

все сериалы на PB.wtf

RePack

FAR CRY 5

Anonymous, доброе утро, мы катастрофически не успеваем собрать деньги на оплату серверов, помогите нам пожалуйста 5,10,15р., для нас важна любая помощь . В качестве благодарности мы отключим Вам всю рекламу на сайте (укажите свой ник в строку Ваше имя)!

×
  
Magnet ссылка

Прекрасные девушки / Fantastic and Beatiful Girls [2016 г., Adult erotic music clips, WEB-DL 1080p] pb.wtf

Прекрасные девушки через торрент pb.wtf

Размер: 3.78 GB | Добавлен: 5 лет 7 мес. назад | Торрент скачан:556 раз
Смотреть онлайн Прекрасные девушки | Скачать    Ребята, помогите собрать деньги на оплату серверов!!!

28-03-2016 13:19 Прекрасные девушки Скачать торрент  

Прекрасные девушки / Fantastic and Beatiful Girls
Год выпуска: 2016
Страна: All World
Жанр: Adult erotic music clips
Продолжительность: 03:21:52

Описание:
Замечательные клипы с красивыми девушками.... с хорошей музыкой..

Качество: WEB-DL 1080p
Формат: MP4
Видео кодек: H.264
Аудио кодек: AAC
Видео: AVC, 1280x720,1920x1080 (16:9), 29.970 fps, 5 000 Kbps (0.080 bit/pixel)
Аудио#1: AAC LC, 44.1-48.0 KHz, 2 ch, 128 Kbps, CBR (English)
01. Night - Wildera [05:10]
02. Aruba Jasmine [11:59]
03. Carolina 1 [02:03]
04. Jeff Milton - Time Again [06:00]
05. ObsCure Babes 1 [05:50]
06. Exhibitionist babe [05:20]
07. Feather’s [02:02]
08. ObsCure Babes 2 [08:13]
09. Sentence [03:41]
10. Natalia - Dance [14:45]
11. Ancilla Tilia in Popoz [02:14]
12. Liz Ashley IS Genie [04:32]
13. ObsCure Babes 3 [09:26]
14. Models in a Reggae (Just Let Me Love You) [09:14]
15. Ejecta - Eleanor Lye [04:14]
16. Carolina 2 [02:53]
17. Smoke Slow [02:22]
18. AnnaS - Showing [01:42]
19. Watch Morning Ritual [04:00]
20. Jess Origine du monde [06:47]
21. Carisha Hot Shower [03:15]
22. ArubaJuice - Daddy Issues [02:31]
23. Digitalo girl from Russia [07:03]
24. Liz Ashley Striptease [03:24]
25. Leanna Decker - Girl on Fire [07:40]
26. ObsCure Babes 4 [10:28]
27. Each Bed Must Be A Snake [09:21]
28. DVJ BAZUKA - Ur Gurl [02:12]
29. The girls of Teaseum [03:17]
30. Charlie Satin Sheets [02:49]
31. Astarte - Anxious [03:45]
32. JasmineC - Doll [03:50]
33. Leila - Sampler Platter [04:20]
34. Hugh Cornwell - God [04:10]
35. StasyQ - Said Energizer [01:19]
36. Jenny's Boudoir - part 1 [03:34]
37. Playing on bed [04:17]
38. I Love Me [03:17]
39. Natalia - Depth blues [05:05]
40. Jessa Rhodes Teases [03:10]
скриншот   скриншот   скриншот   скриншот   скриншот   скриншот  
скриншот   скриншот   скриншот   скриншот   скриншот   скриншот  

Общее
Полное имя : C:\Раздача\Клипы\Fantastic and Beatiful Girls (2016)\01. Night - Wildera.mp4
Формат : MPEG-4
Профиль формата : Base Media
Идентификатор кодека : isom (isom/iso2/avc1/mp41)
Размер файла : 190 Мбайт
Продолжительность : 5 м. 10 с.
Общий поток : 5128 Кбит/сек
Название фильма : EROTICASHARE.COM
Дата кодирования : UTC 2014-05-16 16:11:39
Дата пометки : UTC 2014-05-16 16:11:39
Программа кодирования : Lavf53.32.100

Видео
Идентификатор : 1
Формат : AVC
Формат/Информация : Advanced Video Codec
Профиль формата : High@L4
Параметр CABAC формата : Да
Параметр ReFrames формата : 5 кадров
Идентификатор кодека : avc1
Идентификатор кодека/Информация : Advanced Video Coding
Продолжительность : 5 м. 10 с.
Битрейт : 5000 Кбит/сек
Ширина : 1920 пикселей
Высота : 1080 пикселей
Соотношение сторон : 16:9
Режим частоты кадров : Постоянный
Частота кадров : 29,970 (29970/1000) кадров/сек
Цветовое пространство : YUV
Субдискретизация насыщенности : 4:2:0
Битовая глубина : 8 бит
Тип развёртки : Прогрессивная
Бит/(Пиксели*Кадры) : 0.080
Размер потока : 184 Мбайт (97%)
Библиотека кодирования : x264 core 129 r2245 bc13772
Настройки программы : cabac=1 / ref=5 / deblock=1:0:0 / analyse=0x3:0x113 / me=umh / subme=8 / psy=0 / mixed_ref=1 / me_range=16 / chroma_me=1 / trellis=1 / 8x8dct=1 / cqm=0 / deadzone=21,11 / fast_pskip=1 / chroma_qp_offset=0 / threads=36 / lookahead_threads=6 / sliced_threads=0 / nr=0 / decimate=1 / interlaced=0 / bluray_compat=0 / constrained_intra=0 / bframes=3 / b_pyramid=2 / b_adapt=2 / b_bias=0 / direct=3 / weightb=1 / open_gop=0 / weightp=2 / keyint=250 / keyint_min=25 / scenecut=40 / intra_refresh=0 / rc=2pass / mbtree=0 / bitrate=5000 / ratetol=1.0 / qcomp=0.60 / qpmin=10 / qpmax=51 / qpstep=4 / cplxblur=20.0 / qblur=0.5 / ip_ratio=1.40 / pb_ratio=1.30 / aq=1:1.00
Язык : English
Дата кодирования : UTC 2014-05-16 16:11:39
Дата пометки : UTC 2014-05-16 16:11:39

Аудио
Идентификатор : 2
Формат : AAC
Формат/Информация : Advanced Audio Codec
Профиль формата : LC
Идентификатор кодека : 40
Продолжительность : 5 м. 10 с.
Вид битрейта : Постоянный
Битрейт : 128 Кбит/сек
Каналы : 2 канала
Расположение каналов : Front: L R
Частота : 44,1 КГц
Частота кадров : 43,066 кадра/сек (1024 spf)
Метод сжатия : С потерями
Размер потока : 4,73 Мбайт (2%)
Язык : English
Default : Да
Alternate group : 1
Дата кодирования : UTC 2014-05-16 16:11:39
Дата пометки : UTC 2014-05-16 16:11:39

Общее
Полное имя : C:\Раздача\Клипы\Fantastic and Beatiful Girls (2016)\02. Aruba Jasmine.mp4
Формат : MPEG-4
Профиль формата : Base Media / Version 2
Идентификатор кодека : mp42 (mp42/mp41/isom/avc1)
Размер файла : 161 Мбайт
Продолжительность : 11 м.
Режим общего битрейта : Переменный
Общий поток : 1876 Кбит/сек
Дата кодирования : UTC 2016-03-24 02:32:39
Дата пометки : UTC 2016-03-24 02:32:39

Видео
Идентификатор : 1
Формат : AVC
Формат/Информация : Advanced Video Codec
Профиль формата : High@L3.1
Параметр CABAC формата : Да
Параметр ReFrames формата : 5 кадров
Идентификатор кодека : avc1
Идентификатор кодека/Информация : Advanced Video Coding
Продолжительность : 11 м.
Битрейт : 1616 Кбит/сек
Ширина : 1280 пикселей
Высота : 720 пикселей
Соотношение сторон : 16:9
Режим частоты кадров : Постоянный
Частота кадров : 29,970 (30000/1001) кадров/сек
Цветовое пространство : YUV
Субдискретизация насыщенности : 4:2:0
Битовая глубина : 8 бит
Тип развёртки : Прогрессивная
Бит/(Пиксели*Кадры) : 0.058
Размер потока : 139 Мбайт (86%)
Библиотека кодирования : x264 core 148 r11 a01e339
Настройки программы : cabac=1 / ref=5 / deblock=1:0:0 / analyse=0x3:0x113 / me=umh / subme=8 / psy=1 / psy_rd=1.00:0.00 / mixed_ref=1 / me_range=16 / chroma_me=1 / trellis=1 / 8x8dct=1 / cqm=0 / deadzone=21,11 / fast_pskip=1 / chroma_qp_offset=-2 / threads=22 / lookahead_threads=3 / sliced_threads=0 / nr=0 / decimate=1 / interlaced=0 / bluray_compat=0 / stitchable=1 / constrained_intra=0 / bframes=3 / b_pyramid=2 / b_adapt=2 / b_bias=0 / direct=3 / weightb=1 / open_gop=0 / weightp=2 / keyint=infinite / keyint_min=29 / scenecut=40 / intra_refresh=0 / rc_lookahead=50 / rc=crf / mbtree=1 / crf=20.0 / qcomp=0.60 / qpmin=5 / qpmax=69 / qpstep=4 / vbv_maxrate=2750 / vbv_bufsize=7500 / crf_max=0.0 / nal_hrd=none / filler=0 / ip_ratio=1.40 / aq=1:1.00
Дата кодирования : UTC 2016-03-24 02:32:39
Дата пометки : UTC 2016-03-24 02:32:39
Цветовой диапазон : Limited
Основные цвета : BT.709
Характеристики трансфера : BT.709
Коэффициенты матрицы : BT.709

Аудио
Идентификатор : 2
Формат : AAC
Формат/Информация : Advanced Audio Codec
Профиль формата : LC
Идентификатор кодека : 40
Продолжительность : 11 м.
Вид битрейта : Переменный
Битрейт : 256 Кбит/сек
Каналы : 2 канала
Расположение каналов : Front: L R
Частота : 48,0 КГц
Частота кадров : 46,875 кадров/сек (1024 spf)
Метод сжатия : С потерями
Размер потока : 22,0 Мбайт (14%)
Дата кодирования : UTC 2016-03-24 02:32:39
Дата пометки : UTC 2016-03-24 02:32:39

pb.wtf



Скачать Прекрасные девушки через торрент https://pic.kartinco.top/images/11/ezw9i.jpg Скачать, смотреть онлайн Прекрасные девушки бесплантно в хорошем качестве Описание: Замечательные клипы с красивыми девушками.... с хорошей ... 9.2 10 29
Info! Золотая раздача, скачанное не засчитывается.
Торрент: Зарегистрирован [2016-03-28 13:19] · скачан: 556 раз
Статус: √ проверено
Размер: 3.78 GB
Как cкачать? Как скачать Прекрасные девушки через торрент | UTorrent

28-11-2019 20:33  

Отключить всю рекламу на сайте

    Дорогой пользователь! Огромная просьба, поблагодарите релизера, оцените раздачу и оставьте свои комментарий, если Вы скачали Прекрасные девушки через торрент бесплатно!
    Комментировать посты могут только пользователи прошедшие не сложную регистрацию
    Показать сообщения:    

    Прекрасные девушки через торрент
    Скачать бесплатно Прекрасные девушки
    Прекрасные девушки скачать торрент
    Прекрасные девушки смотреть онлайн
    Cкачать фильм Прекрасные девушки бесплатно
    Прекрасные девушки скачать торрент в хорошем качестве
    Прекрасные девушки смотреть онлайн бесплатно в хорошем качестве


    Вы не можете начинать темы
    Вы не можете отвечать на сообщения
    Вы не можете редактировать свои сообщения
    Вы не можете удалять свои сообщения
    Вы не можете голосовать в опросах
    Вы не можете прикреплять файлы к сообщениям
    Вы можете скачивать файлы