Ссылка на приватное зеркало нашего сайта всего за 1$. Внимание количество ограничено!!!

2 сезон

iTunes

1 сезон

1

2 сезон

2 сезон

iTunes

1 сезон

RePack

30

Новинка

ВАЖНО

ИГРА 18+

pack

RePack

MK11
pack

Забери бонус

RePack

jed

!!Акция!!

Alien_Rage

RePack

fifa19

RePack

Assassins Creed: Odyssey

RePack

NEED FOR SPEED™ PAYBACK

4 сезон

9 сезон

Бесстыжие 9 сезон

Все сериалы

все сериалы на PB.wtf

RePack

FAR CRY 5
  

Морская полиция: Спецотдел / NCIS: Naval Criminal Investigative Service / Сезон: 1 / Серии 1-23 из 23 (Дональд П. Беллисарио) [2003 г., боевик, триллер, драма, комедия, криминал, детектив, DVDRip] MVO pb.wtf

Морская полиция: Спецотдел через торрент pb.wtf

Размер: 8.97 GB | Добавлен: 4 года 8 мес. назад | Торрент скачан:20 раз
Скачать  

28-03-2016 17:44 Морская полиция: Спецотдел Скачать торрент  

Морская полиция: СпецотделNCIS: Naval Criminal Investigative Service -

Год выпуска: 2003
Страна: США
Жанр: боевик, триллер, драма, комедия, криминал, детектив
Продолжительность: ~ 00:43:00 x 23
Перевод: Профессиональный многоголосый ДТВ
Сезон: 1
Серии: 1-23 из 23
Режиссер: Дональд П. Беллисарио, Тони Уормби, Терренс О’Хара
Сценарий: Дональд П. Беллисарио, Дон МакГилл, Стивен Д. Биндер
Продюссер: Дональд П. Беллисарио, Эйвери С. Дрюи, Марк Хоровиц
Оператор: Уильям Дж. Уэбб, Кристос Битсакос, Джон Л. Кункель
Композитор: Брайан Кирк, Джозеф Конлан, Грег Барнс
Художник: Роберт Дж. Бэйкон, Чэз Батчер, Линда Кинг
Монтаж: Грегори Гонц, Дэвид С. Кук, Митчел Стэнли
Премьера в мире: 17 сентября 2003 г.

Основной состав:

Марк Хармон (Лерой Джетро Гиббс), Майкл Уэзерли (Энтони Ди Ноззо), Саша Александр (Кейтлин Тодд), Коте де Пабло (Зива Давид), Эмили Уикершем (Элеанор Бишот), Поли Перретт (Эбби Шуто),Шон Мюррэй (Тимоти МакГи), Лорен Холли (Дженни Шепард), Роки Кэрролл (Леон Вэнс), Дэвид Маккаллум (Доктор Дональд «Даки» Мэллард), Брайан Дитцен (Джимми Палмер)
Второстепенный состав:

Джо Спано (Тобиас С. Форнелл), Алан Дейл (Томас Морроу), Мьюз Уотсон (Майк Фрэнкс), Ральф Уэйт (Джексон Гиббс), Роберт Вагнер (Энтони Диноззо-старший), Сюзанна Томпсон (Холлис Манн), Дайан Нил (Специальный агент Эбигейл Борин), Майкл Нури (Элай Дэвид), Джейми Ли Кертис (Доктор Саманта Райан), Энрике Мурсиано (Рэй Крус), Рена Софер (Маргарет Эллисон Харт), Лиза Лапира (Мишель Ли), Скотти Томпсон (Джинн Бенуа), Джессика Стин (Паула Кэссиди)
Описание: Сериал NCIS освещает деятельность спецагентов вымышленной команды, относящейся к Службе криминальных расследований ВМС США, чья штаб-квартира располагается в Washington Navy Yard в Вашингтоне.. Он занимается расследованием преступлений, совершенных в отношении американских моряков, либо американскими моряками.. Также отдельные серии касаются расследований террористической деятельности и имеют тематику шпионских фильмов.. Группу следователей возглавляет специальный агент Гиббс.. Его команда - это экс-детектив Энтони ДиНоззо, экс-сотрудник секретной службы Кейтлин Тодд, выхоженка из Моссад - Зива Давид (с 3 сезона), специалисты в области судмедэкспертизы - Эбби Шуто и Дональд Маллард, а также профессионал в области IT - Тимоти МакГи..
Качество: DVDRip
Формат: AVI
Видео кодек: XviD
Аудио кодек: Mp3
Видео: 624x352, ~ 1 100 kbps, 25 fps
Аудио#1: русский / 2 ch / 48 kHz / 128 kbps
Аудио#2: английский / 2 ch / 48 kHz / 128 kbps

1. «Белый янки» / «Yankee White»
2. «Подстава» / «Hung out to Dry»
3. «Морской волк» / «Seadog»
4. «Бессмертные» / «The Immortals»
5. «Проклятие» / «The Curse»
6. «Открытое море» / «High Seas»
7. «Операция „Субмарина“» / «Sub Rosa»
8. «Минимальная охрана» / «Minimum Security»
9. «Гибель морского пехотинца» / «Marine Down»
10. «Брошенные на смерть» / «Left for Dead»
11. «Шпион» / «Eye Spy»
12. «Другая левая нога» / «My Other Left Foot»
13. «Без промаха» / «One Shot, One Kill»
14. «Добрый самаритянин» / «The Good Samaritan»
15. «Загадка» / «Enigma»
16. «Кошмар» / «Bête Noire»
17. «Правда и ложь» / «The Truth Is out There»
18. «Беглый пехотинец» / «UnSEALed»
19. «Послание с того света» / «Dead Man Talking»
20. «Пропавшие» / «Missing»
21. «Двойственное решение» / «Split Decision»
22. «Слабое звено» / «A Weak Link»
23. «Пробуждение» / «Reveille»
скриншот   скриншот   скриншот   скриншот   скриншот   скриншот   скриншот   скриншот   скриншот   скриншот  

General
Complete name : D:\NCIS\NCIS. Season 1\NCIS.s01e01.DVDRip.rus.eng.avi
Format : AVI
Format/Info : Audio Video Interleave
File size : 399 MiB
Duration : 42mn 29s
Overall bit rate : 1 314 Kbps
Writing application : VirtualDubMod 1.5.10.2 (build 2540/release)
Writing library : VirtualDubMod build 2540/release

Video #0
ID : 0
Format : MPEG-4 Visual
Format profile : Advanced Simple@L5
Format settings, BVOP : 2
Format settings, QPel : No
Format settings, GMC : No warppoints
Format settings, Matrix : Default (H.263)
Muxing mode : Packed bitstream
Codec ID : XVID
Codec ID/Hint : XviD
Duration : 42mn 29s
Bit rate : 1 044 Kbps
Width : 624 pixels
Height : 352 pixels
Display aspect ratio : 16:9
Frame rate : 25.000 fps
Color space : YUV
Chroma subsampling : 4:2:0
Bit depth : 8 bits
Scan type : Progressive
Compression mode : Lossy
Bits/(Pixel*Frame) : 0.190
Stream size : 317 MiB (79%)
Writing library : XviD 1.1.2 (UTC 2006-11-01)

Audio #1
ID : 1
Format : MPEG Audio
Format version : Version 1
Format profile : Layer 3
Mode : Joint stereo
Mode extension : MS Stereo
Codec ID : 55
Codec ID/Hint : MP3
Duration : 42mn 29s
Bit rate mode : Constant
Bit rate : 128 Kbps
Channel(s) : 2 channels
Sampling rate : 48.0 KHz
Compression mode : Lossy
Stream size : 38.9 MiB (10%)
Alignment : Aligned on interleaves
Interleave, duration : 40 ms (1.00 video frame)
Interleave, preload duration : 504 ms

Audio #2
ID : 2
Format : MPEG Audio
Format version : Version 1
Format profile : Layer 3
Mode : Joint stereo
Mode extension : MS Stereo
Codec ID : 55
Codec ID/Hint : MP3
Duration : 42mn 29s
Bit rate mode : Constant
Bit rate : 128 Kbps
Channel(s) : 2 channels
Sampling rate : 48.0 KHz
Compression mode : Lossy
Stream size : 38.9 MiB (10%)
Alignment : Aligned on interleaves
Interleave, duration : 40 ms (1.00 video frame)
Interleave, preload duration : 504 ms


pb.wtf



Скачать Морская полиция: Спецотдел через торрент http://pic.kartinco.top/images/11/yki46.jpg Скачать фильм Морская полиция: Спецотдел через торрент бесплантно в хорошем качестве Описание: Сериал NCIS освещает деятельность спецагентов вымышленной команды, относящейся к Службе криминальных расследований ВМС США, чья ... 10 10 5
Info! Золотая раздача, скачанное не засчитывается.
Торрент: Зарегистрирован [2016-03-28 17:44] · скачан: 20 раз
Статус: √ проверено
Размер: 8.97 GB
Как cкачать? Как скачать Морская полиция: Спецотдел через торрент | qTorrent

% Раздел Тема Автор DL S | L
Зарубежные сериалы [ 8.8 GB ] Морская полиция: Спецотдел / NCIS: Naval Criminal Investigative Service / Сезон: 2 / Серии 1-23 из 23 [2004 DVDRip] MVO MicroCharmelle Скачать
1 | 0


Последний раз редактировалось: MicroCharmelle (2017-03-22 22:46), всего редактировалось 2 раз(а)

28-11-2019 20:33  

Отключить всю рекламу на сайте

28-03-2016 17:50 Морская полиция: Спецотдел Скачать торрент  

По мере освобождения места буду выкладывать остальные сезоны..pb.wtf



03-08-2017 15:38 Морская полиция: Спецотдел Скачать торрент  

Подскажите название саундтрека к 13-й серии на 8-й минуте.pb.wtf



    Дорогой пользователь! Огромная просьба, поблагодарите релизера, оцените раздачу и оставьте свои комментарий, если Вы скачали Морская полиция: Спецотдел через торрент бесплатно! Внесите свою лепту в развитие PiratBit!
    Комментировать посты могут только пользователи прошедшие не сложную регистрацию
    Показать сообщения:    

    Морская полиция: Спецотдел через торрент
    Скачать бесплатно Морская полиция: Спецотдел
    Морская полиция: Спецотдел скачать торрент
    Морская полиция: Спецотдел смотреть онлайн
    Cкачать фильм Морская полиция: Спецотдел бесплатно
    Морская полиция: Спецотдел скачать торрент в хорошем качестве
    Морская полиция: Спецотдел смотреть онлайн бесплатно в хорошем качестве


    Вы не можете начинать темы
    Вы не можете отвечать на сообщения
    Вы не можете редактировать свои сообщения
    Вы не можете удалять свои сообщения
    Вы не можете голосовать в опросах
    Вы не можете прикреплять файлы к сообщениям
    Вы можете скачивать файлы