Ссылка на приватное зеркало нашего сайта всего за 1$. Внимание количество ограничено!!!

2 сезон

iTunes

1 сезон

1

2 сезон

2 сезон

iTunes

1 сезон

RePack

30

Новинка

ВАЖНО

ИГРА 18+

pack

RePack

MK11
pack

Забери бонус

RePack

jed

!!Акция!!

Alien_Rage

RePack

fifa19

RePack

Assassins Creed: Odyssey

RePack

NEED FOR SPEED™ PAYBACK

4 сезон

9 сезон

Бесстыжие 9 сезон

Все сериалы

все сериалы на PB.wtf

RePack

FAR CRY 5
  

Хлеб и шоколад / Pane e cioccolata (Франко Брузати) [1973, драма, комедия, BDRip 1080p by msltel] VO pb.wtf

Хлеб и шоколад через торрент pb.wtf

Размер: 13.35 GB | Добавлен: 4 года 7 мес. назад | Торрент скачан:2 раза
Скачать  

29-03-2016 08:33 Хлеб и шоколад Скачать торрент  

Название: Хлеб и шоколад
Оригинальное название: Pane e cioccolata
Год выпуска: 1973
Страна: Италия
Жанр: драма, комедия
Продолжительность: 01:55:50
Перевод: любительский одноголосый

Режиссёр: Франко Брузати

В ролях: Нино Манфреди, Джонни Дорелли, Анна Карина, Паоло Турко, Уго д'Алессио, Джанфранко Барра, Джорджо Черони, Франческо д'Адда, Нелида Джамарко

Описание: Нелегко итальянскому эмигранту в Швейцарии. Местное население не жалует приезжих, да и конкуренты из Турции, Испании и других стран не дают расслабляться. Нино Гарофоли приехал в благополучную Швейцарию в поисках заработка для своей семьи. Но не везет ему. То его подозревают в убийстве, то случайно фотографируют, когда он после допроса помочился на улице. В результате он скатывается вниз по социальной лестнице от официанта в престижном ресторане до положения нелегала на загородной ферме. Попутно он теряет все свои деньги, отдав их земляку-миллионеру, который разорился и покончил с собой. Женщина, с которой у него наметился роман, выходит замуж за швейцарца. Но Нино не сдается и борется до последнего...



Качество: BDRip 1080p Сравнение с исходником
Формат: MKV
Видео: MPEG-4 AVC, 14.8 MКбит/с, 1920x1036, 23,976 кадра/с
Аудио 1: русский, AC3, 192 kbps, 2 ch, 48 kHz [любительский одноголосый, Василий Кошкин]
Аудио 2: итальянский, DTS, 1509 kbps, 2 ch, 48 kHz [оригинал]
Субтитры: английские
Общее
Уникальный идентификатор : 170376343960712473143097212848095947183 (0x802D4A4ECD2F7B189B6C74FE5CD8E9AF)
Полное имя : D:\Video\Хлеб и шоколад.1973.BDRip.1080p.mkv
Формат : Matroska
Версия формата : Version 4 / Version 2
Размер файла : 13,3 Гбайт
Продолжительность : 1 ч. 55 м.
Общий поток : 16,5 Мбит/сек
Дата кодирования : UTC 2016-03-28 13:00:16
Программа кодирования : mkvmerge v8.2.0 ('World of Adventure') 64bit
Библиотека кодирования : libebml v1.3.1 + libmatroska v1.4.2

Видео
Идентификатор : 1
Формат : AVC
Формат/Информация : Advanced Video Codec
Профиль формата : High@L4.1
Параметр CABAC формата : Да
Параметр ReFrames формата : 4 кадра
Идентификатор кодека : V_MPEG4/ISO/AVC
Продолжительность : 1 ч. 55 м.
Битрейт : 14,8 Мбит/сек
Ширина : 1920 пикселей
Высота : 1036 пикселей
Соотношение сторон : 1,85:1
Режим частоты кадров : Постоянный
Частота кадров : 23,976 (24000/1001) кадра/сек
Цветовое пространство : YUV
Субдискретизация насыщенности : 4:2:0
Битовая глубина : 8 бит
Тип развёртки : Прогрессивная
Бит/(Пиксели*Кадры) : 0.310
Размер потока : 12,0 Гбайт (90%)
Библиотека кодирования : x264 core 146 r2538 121396c
Настройки программы : cabac=1 / ref=4 / deblock=1:-3:-3 / analyse=0x3:0x113 / me=umh / subme=10 / psy=1 / psy_rd=1.00:0.15 / mixed_ref=1 / me_range=32 / chroma_me=1 / trellis=2 / 8x8dct=1 / cqm=0 / deadzone=21,11 / fast_pskip=0 / chroma_qp_offset=-3 / threads=6 / lookahead_threads=1 / sliced_threads=0 / nr=0 / decimate=0 / interlaced=0 / bluray_compat=0 / constrained_intra=0 / bframes=11 / b_pyramid=2 / b_adapt=2 / b_bias=0 / direct=1 / weightb=1 / open_gop=0 / weightp=2 / keyint=230 / keyint_min=23 / scenecut=40 / intra_refresh=0 / rc_lookahead=40 / rc=crf / mbtree=0 / crf=19.3 / qcomp=0.60 / qpmin=0 / qpmax=69 / qpstep=4 / vbv_maxrate=40000 / vbv_bufsize=50000 / crf_max=0.0 / nal_hrd=none / filler=0 / ip_ratio=1.40 / pb_ratio=1.30 / aq=1:1.00
Язык : Italian
Default : Да
Forced : Нет

Аудио #1
Идентификатор : 2
Формат : AC-3
Формат/Информация : Audio Coding 3
Расширение режима : CM (complete main)
Параметр Endianness формата : Big
Идентификатор кодека : A_AC3
Продолжительность : 1 ч. 55 м.
Вид битрейта : Постоянный
Битрейт : 192 Кбит/сек
Каналы : 2 канала
Расположение каналов : Front: L R
Частота : 48,0 КГц
Частота кадров : 31,250 кадров/сек (1536 spf)
Метод сжатия : С потерями
Размер потока : 159 Мбайт (1%)
Заголовок : любительский одноголосый, Василий Кошкин
Язык : Russian
Default : Да
Forced : Нет

Аудио #2
Идентификатор : 3
Формат : DTS
Формат/Информация : Digital Theater Systems
Режим : 16
Параметр Endianness формата : Big
Идентификатор кодека : A_DTS
Продолжительность : 1 ч. 55 м.
Вид битрейта : Постоянный
Битрейт : 1509 Кбит/сек
Каналы : 2 канала
Расположение каналов : Front: L R
Частота : 48,0 КГц
Частота кадров : 93,750 кадра/сек (512 spf)
Битовая глубина : 16 бит
Метод сжатия : С потерями
Размер потока : 1,22 Гбайт (9%)
Заголовок : Original
Язык : Italian
Default : Нет
Forced : Нет

Текст
Идентификатор : 4
Формат : UTF-8
Идентификатор кодека : S_TEXT/UTF8
Идентификатор кодека/Информация : UTF-8 Plain Text
Продолжительность : 1 ч. 47 м.
Битрейт : 31 бит/сек
Count of elements : 694
Размер потока : 25,2 Кбайт (0%)
Заголовок : английский
Язык : English
Default : Нет
Forced : Нет
pb.wtf



Скачать Хлеб и шоколад через торрент http://s020.radikal.ru/i716/1603/d2/b346d867abbb.jpg Скачать фильм Хлеб и шоколад через торрент бесплантно в хорошем качестве Описание: Нелегко итальянскому эмигранту в Швейцарии. Местное население не жалует приезжих, да и конкуренты из Турции, Испании и других ... 10 10 2
Info! Золотая раздача, скачанное не засчитывается.
Торрент: Зарегистрирован [2016-03-29 08:33] · скачан: 2 раз
Статус: √ проверено
Размер: 13.35 GB
Как cкачать? Как скачать Хлеб и шоколад через торрент | qTorrent

% Раздел Тема Автор DL S | L
Фильмы [HD 720p, 1080p] (Звук Cam, VO, DVO) [ 4.74 GB ] Хлеб и шоколад / Pane e cioccolata [1973 BDRip 720p by msltel] VO msltel Скачать
1 | 0

28-11-2019 20:33  

Отключить всю рекламу на сайте

    Дорогой пользователь! Огромная просьба, поблагодарите релизера, оцените раздачу и оставьте свои комментарий, если Вы скачали Хлеб и шоколад через торрент бесплатно! Внесите свою лепту в развитие PiratBit!
    Комментировать посты могут только пользователи прошедшие не сложную регистрацию
    Показать сообщения:    

    Хлеб и шоколад через торрент
    Скачать бесплатно Хлеб и шоколад
    Хлеб и шоколад скачать торрент
    Хлеб и шоколад смотреть онлайн
    Cкачать фильм Хлеб и шоколад бесплатно
    Хлеб и шоколад скачать торрент в хорошем качестве
    Хлеб и шоколад смотреть онлайн бесплатно в хорошем качестве


    Вы не можете начинать темы
    Вы не можете отвечать на сообщения
    Вы не можете редактировать свои сообщения
    Вы не можете удалять свои сообщения
    Вы не можете голосовать в опросах
    Вы не можете прикреплять файлы к сообщениям
    Вы можете скачивать файлы