2 сезон

iTunes

MVO

1

2 сезон

iTunes

iTunes

1 сезон

RePack

30

Новинка

ВАЖНО

ИГРА 18+

pack

RePack

MK11
pack

Легкие деньги

RePack

jed

RePack

fifa19

RePack

RDR2

RePack

NEED FOR SPEED™ PAYBACK

4 сезон

9 сезон

Бесстыжие 9 сезон

Все сериалы

все сериалы на PB.wtf

RePack

FAR CRY 5

Anonymous, доброе утро, мы не успеваем собрать деньги на оплату серверов за декабрь и январь, помогите нам пожалуйста в это трудное время. В качестве благодарности мы отключим Вам всю рекламу на сайте (укажите свой ник в строку Ваше имя)!

×
  
Magnet ссылка

Сборник видеоклипов - поп хиты [2015 - 2016 г., Pop, HDTVRip 1080p] pb.wtf

Сборник видеоклипов - поп хиты через торрент pb.wtf

Размер: 6.72 GB | Добавлен: 4 года 9 мес. назад | Торрент скачан:266 раз
Скачать  

29-03-2016 13:46 Сборник видеоклипов - поп хиты Скачать торрент  

Сборник видеоклипов - поп хиты [2015 - 2016 г. ,Pop, HDTVRip 1080p]
Год выпуска: 2016
Жанр: Pop
Продолжительность: 01:35:09
Качество:HDTVRip 1080p
Формат: MPEG4
Видео кодек: AVC
Аудио кодек:AAC
Видео: MPEG4 AVC, 1920x1080, 23,976 - 25,000 fps, 7970 kbps
Аудио#1: AAC 48,0 kHz, 2 ch, 317 kbps
1.Agent Provocateur - L'Agent
2.alyosha - unarmed
3.Becky G - Can't Stop Dancin'
4.Ciara - Dance Like We're Making Love
5.Deepcentral - Hey Girl (Dreaming Of Moscow)
6.DJ Layla feat. Sianna - I Need Love
7.DJ M.E.G. feat. Serebro - Угар
8.Fifth Harmony Feat Ty Dolla $ign - Work from Home
9.Jennifer Lopez Feat. Iggy Azalea - Booty
10.Lil Debbie - Wiggle
11.Liza Fox - Динамит
12.Madison Beer - All For Love ft. Jack & Jack
13.Mishelle - Ray of Light.
14.NIKITA - Вдыхай
15.Prince Royce feat. Jennifer Lopez & Pitbull - Back It Up
16.Shakira - Try Everything
17.Инвойс - Солнца Бит
18.Ирина Ортман - Заморочки
19.Мот feat. Бьянка - Абсолютно Всё
20.Нюша - Где ты, там я
21.Ольга Романовская - Музыка
22.Потап и Настя - Уди Уди
23.Потап и Настя feat. Бьянка - Стиль собачки
24.Сергей Лазарев - Это Всё Она
25.Ханна - Мама, я влюбилась
26.Ханна - Потеряла голову
Общее
Полное имя : Agent Provocateur - L'Agent.mp4
Формат : MPEG-4
Профиль формата : Base Media / Version 2
Идентификатор кодека : mp42
Размер файла : 455 Мбайт
Продолжительность : 3 м. 23 с.
Режим общего битрейта : Переменный
Общий поток : 18,8 Мбит/сек
Название фильма : AGENT
Дата кодирования : UTC 2014-07-30 13:36:01
Дата пометки : UTC 2014-07-30 13:36:50

Видео
Идентификатор : 2
Формат : AVC
Формат/Информация : Advanced Video Codec
Профиль формата : High@L4.0
Параметр CABAC формата : Да
Параметр ReFrames формата : 2 кадра
Параметр GOP формата : M=2, N=30
Идентификатор кодека : avc1
Идентификатор кодека/Информация : Advanced Video Coding
Продолжительность : 3 м. 23 с.
Вид битрейта : Переменный
Битрейт : 18,7 Мбит/сек
Максимальный битрейт : 768 Кбит/сек
Ширина : 1920 пикселей
Высота : 1080 пикселей
Соотношение сторон : 16:9
Режим частоты кадров : Постоянный
Частота кадров : 23,976 кадра/сек
Частота кадров в оригинале : 25,000 кадров/сек
Цветовое пространство : YUV
Субдискретизация насыщенности : 4:2:0
Битовая глубина : 8 бит
Тип развёртки : Прогрессивная
Бит/(Пиксели*Кадры) : 0.375
Размер потока : 452 Мбайт (99%)
Заголовок : Core Media Video
Дата кодирования : UTC 2014-07-30 13:36:01
Дата пометки : UTC 2014-07-30 13:36:50
Основные цвета : BT.709
Характеристики трансфера : BT.709
Коэффициенты матрицы : BT.709

Аудио
Идентификатор : 1
Формат : AAC
Формат/Информация : Advanced Audio Codec
Профиль формата : LC
Идентификатор кодека : 40
Продолжительность : 3 м. 23 с.
Продолжительность оригинала : 3 м. 23 с.
Вид битрейта : Постоянный
Битрейт : 119 Кбит/сек
Номинальный битрейт : 128 Кбит/сек
Каналы : 2 канала
Расположение каналов : Front: L R
Частота : 48,0 КГц
Метод сжатия : С потерями
Задержка видео : 42 мс.
Размер потока : 2,88 Мбайт (1%)
Размер потока оригинала : 2,88 Мбайт (1%)
Заголовок : Core Media Audio
Язык : English
Дата кодирования : UTC 2014-07-30 13:36:01
Дата пометки : UTC 2014-07-30 13:36:50

Общее
Полное имя : alyosha unarmed.mp4
Формат : MPEG-4
Профиль формата : Base Media / Version 2
Идентификатор кодека : mp42
Размер файла : 164 Мбайт
Продолжительность : 3 м. 21 с.
Режим общего битрейта : Переменный
Общий поток : 6828 Кбит/сек
Дата кодирования : UTC 2014-06-27 08:00:01
Дата пометки : UTC 2014-06-27 08:00:03
©TIM : 00:00:00:00
©TSC : 25
©TSZ : 1

Видео
Идентификатор : 1
Формат : AVC
Формат/Информация : Advanced Video Codec
Профиль формата : High@L4.0
Параметр CABAC формата : Да
Параметр ReFrames формата : 3 кадра
Идентификатор кодека : avc1
Идентификатор кодека/Информация : Advanced Video Coding
Продолжительность : 3 м. 21 с.
Вид битрейта : Переменный
Битрейт : 6506 Кбит/сек
Максимальный битрейт : 8000 Кбит/сек
Ширина : 1920 пикселей
Высота : 1080 пикселей
Соотношение сторон : 16:9
Режим частоты кадров : Постоянный
Частота кадров : 25,000 кадров/сек
Стандарт вещания : PAL
Цветовое пространство : YUV
Субдискретизация насыщенности : 4:2:0
Битовая глубина : 8 бит
Тип развёртки : Прогрессивная
Бит/(Пиксели*Кадры) : 0.126
Размер потока : 156 Мбайт (95%)
Язык : English
Дата кодирования : UTC 2014-06-27 08:00:01
Дата пометки : UTC 2014-06-27 08:00:01
Основные цвета : BT.709
Характеристики трансфера : BT.709
Коэффициенты матрицы : BT.709

Аудио
Идентификатор : 2
Формат : AAC
Формат/Информация : Advanced Audio Codec
Профиль формата : LC
Идентификатор кодека : 40
Продолжительность : 3 м. 21 с.
Продолжительность оригинала : 3 м. 21 с.
Вид битрейта : Переменный
Битрейт : 317 Кбит/сек
Максимальный битрейт : 401 Кбит/сек
Каналы : 2 канала
Расположение каналов : Front: L R
Частота : 48,0 КГц
Метод сжатия : С потерями
Размер потока : 7,61 Мбайт (5%)
Размер потока оригинала : 7,61 Мбайт (5%)
Язык : English
Дата кодирования : UTC 2014-06-27 08:00:01
Дата пометки : UTC 2014-06-27 08:00:01

Общее
Полное имя : Becky G - Can't Stop Dancin'.mp4
Формат : MPEG-4
Профиль формата : Base Media / Version 2
Идентификатор кодека : mp42
Размер файла : 213 Мбайт
Продолжительность : 3 м. 38 с.
Режим общего битрейта : Переменный
Общий поток : 8160 Кбит/сек

Видео
Идентификатор : 1
Формат : AVC
Формат/Информация : Advanced Video Codec
Профиль формата : High@L4.0
Параметр CABAC формата : Да
Параметр ReFrames формата : 8 кадров
Идентификатор кодека : avc1
Идентификатор кодека/Информация : Advanced Video Coding
Продолжительность : 3 м. 38 с.
Продолжительность оригинала : 3 м. 38 с.
Вид битрейта : Переменный
Битрейт : 7835 Кбит/сек
Максимальный битрейт : 40,0 Мбит/сек
Ширина : 1920 пикселей
Высота : 1080 пикселей
Соотношение сторон : 16:9
Режим частоты кадров : Переменный
Частота кадров : 23,976 кадра/сек
Минимальная частота кадров : 23,974 кадра/сек
Максимальная частота кадров : 23,981 кадра/сек
Цветовое пространство : YUV
Субдискретизация насыщенности : 4:2:0
Битовая глубина : 8 бит
Тип развёртки : Прогрессивная
Бит/(Пиксели*Кадры) : 0.158
Размер потока : 204 Мбайт (96%)
Размер потока оригинала : 204 Мбайт (96%)
Язык : English
mdhd_Duration : 218635

Аудио
Идентификатор : 2
Формат : AAC
Формат/Информация : Advanced Audio Codec
Профиль формата : LC
Идентификатор кодека : 40
Продолжительность : 3 м. 38 с.
Продолжительность оригинала : 3 м. 38 с.
Вид битрейта : Переменный
Битрейт : 320 Кбит/сек
Каналы : 2 канала
Расположение каналов : Front: L R
Частота : 48,0 КГц
Метод сжатия : С потерями
Размер потока : 8,34 Мбайт (4%)
Размер потока оригинала : 8,34 Мбайт (4%)
Язык : English
mdhd_Duration : 218666

Общее
Полное имя : Ciara - Dance Like We're Making Love.mp4
Формат : MPEG-4
Профиль формата : Base Media / Version 2
Идентификатор кодека : mp42
Размер файла : 268 Мбайт
Продолжительность : 4 м. 27 с.
Режим общего битрейта : Переменный
Общий поток : 8381 Кбит/сек

Видео
Идентификатор : 1
Формат : AVC
Формат/Информация : Advanced Video Codec
Профиль формата : Baseline@L4.1
Параметр CABAC формата : Нет
Параметр ReFrames формата : 1 кадр
Параметр GOP формата : M=1, N=71
Идентификатор кодека : avc1
Идентификатор кодека/Информация : Advanced Video Coding
Продолжительность : 4 м. 27 с.
Продолжительность оригинала : 4 м. 27 с.
Вид битрейта : Переменный
Битрейт : 8060 Кбит/сек
Максимальный битрейт : 16,0 Мбит/сек
Ширина : 1920 пикселей
Высота : 1080 пикселей
Соотношение сторон : 16:9
Режим частоты кадров : Переменный
Частота кадров : 23,976 кадра/сек
Минимальная частота кадров : 23,974 кадра/сек
Максимальная частота кадров : 23,981 кадра/сек
Цветовое пространство : YUV
Субдискретизация насыщенности : 4:2:0
Битовая глубина : 8 бит
Тип развёртки : Прогрессивная
Бит/(Пиксели*Кадры) : 0.162
Размер потока : 257 Мбайт (96%)
Размер потока оригинала : 257 Мбайт (96%)
Язык : English
mdhd_Duration : 267851
Основные цвета : BT.709
Характеристики трансфера : BT.709
Коэффициенты матрицы : BT.709

Аудио
Идентификатор : 2
Формат : AAC
Формат/Информация : Advanced Audio Codec
Профиль формата : LC
Идентификатор кодека : 40
Продолжительность : 4 м. 27 с.
Продолжительность оригинала : 4 м. 27 с.
Вид битрейта : Переменный
Битрейт : 317 Кбит/сек
Каналы : 2 канала
Расположение каналов : Front: L R
Частота : 48,0 КГц
Метод сжатия : С потерями
Размер потока : 10,1 Мбайт (4%)
Размер потока оригинала : 10,1 Мбайт (4%)
Язык : English
mdhd_Duration : 267840

Общее
Полное имя : Deepcentral - Hey Girl (Dreaming Of Moscow).MP4
Формат : MPEG-4
Идентификатор кодека : M4V
Размер файла : 313 Мбайт
Продолжительность : 4 м. 22 с.
Режим общего битрейта : Переменный
Общий поток : 10,0 Мбит/сек
Название фильма : Untitled Project
Название фильма/Ещё : This video is about Untitled Project
Альбом/Исполнитель : Sirbu Slava
Исполнитель : Sirbu Slava
Дата кодирования : UTC 2014-10-02 20:42:39
Дата пометки : UTC 2014-10-02 20:45:36
desc : This video is about Untitled Project
keyw : convertor

Видео
Идентификатор : 2
Формат : AVC
Формат/Информация : Advanced Video Codec
Профиль формата : High@L4.0
Параметр CABAC формата : Да
Параметр ReFrames формата : 2 кадра
Параметр GOP формата : M=2, N=30
Идентификатор кодека : avc1
Идентификатор кодека/Информация : Advanced Video Coding
Продолжительность : 4 м. 22 с.
Вид битрейта : Переменный
Битрейт : 9870 Кбит/сек
Максимальный битрейт : 768 Кбит/сек
Ширина : 1920 пикселей
Высота : 1080 пикселей
Соотношение сторон : 16:9
Режим частоты кадров : Постоянный
Частота кадров : 25,000 кадров/сек
Цветовое пространство : YUV
Субдискретизация насыщенности : 4:2:0
Битовая глубина : 8 бит
Тип развёртки : Прогрессивная
Бит/(Пиксели*Кадры) : 0.190
Размер потока : 309 Мбайт (99%)
Заголовок : Core Media Video
Дата кодирования : UTC 2014-10-02 20:42:39
Дата пометки : UTC 2014-10-02 20:45:36
Основные цвета : BT.709
Характеристики трансфера : BT.709
Коэффициенты матрицы : BT.709

Аудио
Идентификатор : 1
Формат : AAC
Формат/Информация : Advanced Audio Codec
Профиль формата : LC
Идентификатор кодека : 40
Продолжительность : 4 м. 22 с.
Продолжительность оригинала : 4 м. 22 с.
Вид битрейта : Постоянный
Битрейт : 128 Кбит/сек
Каналы : 2 канала
Расположение каналов : Front: L R
Частота : 48,0 КГц
Метод сжатия : С потерями
Задержка видео : 40 мс.
Размер потока : 3,98 Мбайт (1%)
Размер потока оригинала : 3,98 Мбайт (1%)
Заголовок : Core Media Audio
Язык : English
Дата кодирования : UTC 2014-10-02 20:42:39
Дата пометки : UTC 2014-10-02 20:45:36

Общее
Полное имя : DJ Layla feat. Sianna - I Need Love.MP4
Формат : MPEG-4
Профиль формата : Base Media / Version 2
Идентификатор кодека : mp42
Размер файла : 461 Мбайт
Продолжительность : 3 м. 42 с.
Режим общего битрейта : Переменный
Общий поток : 17,4 Мбит/сек
Дата кодирования : UTC 2015-10-13 08:59:42
Дата пометки : UTC 2015-10-13 08:59:46
©TIM : 00:00:00:00
©TSC : 25
©TSZ : 1

Видео
Идентификатор : 1
Формат : AVC
Формат/Информация : Advanced Video Codec
Профиль формата : Main@L4.2
Параметр CABAC формата : Да
Параметр ReFrames формата : 3 кадра
Идентификатор кодека : avc1
Идентификатор кодека/Информация : Advanced Video Coding
Продолжительность : 3 м. 42 с.
Вид битрейта : Переменный
Битрейт : 17,2 Мбит/сек
Максимальный битрейт : 24,7 Мбит/сек
Ширина : 1920 пикселей
Высота : 1080 пикселей
Соотношение сторон : 16:9
Режим частоты кадров : Постоянный
Частота кадров : 25,000 кадров/сек
Стандарт вещания : PAL
Цветовое пространство : YUV
Субдискретизация насыщенности : 4:2:0
Битовая глубина : 8 бит
Тип развёртки : Прогрессивная
Бит/(Пиксели*Кадры) : 0.331
Размер потока : 455 Мбайт (99%)
Язык : English
Дата кодирования : UTC 2015-10-13 08:59:42
Дата пометки : UTC 2015-10-13 08:59:42

Аудио
Идентификатор : 2
Формат : AAC
Формат/Информация : Advanced Audio Codec
Профиль формата : LC
Идентификатор кодека : 40
Продолжительность : 3 м. 42 с.
Продолжительность оригинала : 3 м. 42 с.
Вид битрейта : Переменный
Битрейт : 192 Кбит/сек
Максимальный битрейт : 291 Кбит/сек
Каналы : 2 канала
Расположение каналов : Front: L R
Частота : 48,0 КГц
Метод сжатия : С потерями
Размер потока : 5,02 Мбайт (1%)
Размер потока оригинала : 5,02 Мбайт (1%)
Язык : English
Дата кодирования : UTC 2015-10-13 08:59:42
Дата пометки : UTC 2015-10-13 08:59:42

Общее
Полное имя : DJ M.E.G. feat. Serebro - Угар.mp4
Формат : MPEG-4
Профиль формата : Base Media / Version 2
Идентификатор кодека : mp42
Размер файла : 347 Мбайт
Продолжительность : 3 м. 40 с.
Режим общего битрейта : Переменный
Общий поток : 13,2 Мбит/сек
Дата кодирования : UTC 2014-04-25 07:17:46
Дата пометки : UTC 2014-04-25 07:17:53
©TIM : 00:00:00:00
©TSC : 25
©TSZ : 1

Видео
Идентификатор : 1
Формат : AVC
Формат/Информация : Advanced Video Codec
Профиль формата : High@L4.0
Параметр CABAC формата : Да
Параметр ReFrames формата : 3 кадра
Идентификатор кодека : avc1
Идентификатор кодека/Информация : Advanced Video Coding
Продолжительность : 3 м. 40 с.
Битрейт : 12,9 Мбит/сек
Ширина : 1920 пикселей
Высота : 1080 пикселей
Соотношение сторон : 16:9
Режим частоты кадров : Постоянный
Частота кадров : 25,000 кадров/сек
Стандарт вещания : PAL
Цветовое пространство : YUV
Субдискретизация насыщенности : 4:2:0
Битовая глубина : 8 бит
Тип развёртки : Прогрессивная
Бит/(Пиксели*Кадры) : 0.249
Размер потока : 339 Мбайт (98%)
Язык : English
Дата кодирования : UTC 2014-04-25 07:17:46
Дата пометки : UTC 2014-04-25 07:17:46
Основные цвета : BT.709
Характеристики трансфера : BT.709
Коэффициенты матрицы : BT.709

Аудио
Идентификатор : 2
Формат : AAC
Формат/Информация : Advanced Audio Codec
Профиль формата : LC
Идентификатор кодека : 40
Продолжительность : 3 м. 40 с.
Продолжительность оригинала : 3 м. 40 с.
Вид битрейта : Переменный
Битрейт : 317 Кбит/сек
Максимальный битрейт : 473 Кбит/сек
Каналы : 2 канала
Расположение каналов : Front: L R
Частота : 48,0 КГц
Метод сжатия : С потерями
Размер потока : 8,32 Мбайт (2%)
Размер потока оригинала : 8,33 Мбайт (2%)
Язык : English
Дата кодирования : UTC 2014-04-25 07:17:46
Дата пометки : UTC 2014-04-25 07:17:46
mdhd_Duration : 220075

Общее
Полное имя : Fifth Harmony Feat Ty Dolla $ign - Work from Home.mp4
Формат : MPEG-4
Профиль формата : Base Media / Version 2
Идентификатор кодека : mp42
Размер файла : 216 Мбайт
Продолжительность : 3 м. 39 с.
Режим общего битрейта : Переменный
Общий поток : 8237 Кбит/сек

Видео
Идентификатор : 1
Формат : AVC
Формат/Информация : Advanced Video Codec
Профиль формата : High@L4.0
Параметр CABAC формата : Да
Параметр ReFrames формата : 8 кадров
Идентификатор кодека : avc1
Идентификатор кодека/Информация : Advanced Video Coding
Продолжительность : 3 м. 39 с.
Продолжительность оригинала : 3 м. 39 с.
Вид битрейта : Переменный
Битрейт : 7912 Кбит/сек
Максимальный битрейт : 40,0 Мбит/сек
Ширина : 1920 пикселей
Высота : 1080 пикселей
Соотношение сторон : 16:9
Режим частоты кадров : Переменный
Частота кадров : 23,976 кадра/сек
Минимальная частота кадров : 23,974 кадра/сек
Максимальная частота кадров : 23,981 кадра/сек
Цветовое пространство : YUV
Субдискретизация насыщенности : 4:2:0
Битовая глубина : 8 бит
Тип развёртки : Прогрессивная
Бит/(Пиксели*Кадры) : 0.159
Размер потока : 207 Мбайт (96%)
Размер потока оригинала : 207 Мбайт (96%)
Язык : English
mdhd_Duration : 219886

Аудио
Идентификатор : 2
Формат : AAC
Формат/Информация : Advanced Audio Codec
Профиль формата : LC
Идентификатор кодека : 40
Продолжительность : 3 м. 39 с.
Продолжительность оригинала : 3 м. 39 с.
Вид битрейта : Переменный
Битрейт : 320 Кбит/сек
Каналы : 2 канала
Расположение каналов : Front: L R
Частота : 48,0 КГц
Метод сжатия : С потерями
Размер потока : 8,39 Мбайт (4%)
Размер потока оригинала : 8,39 Мбайт (4%)
Язык : English
mdhd_Duration : 219925

Общее
Полное имя : Jennifer Lopez Feat. Iggy Azalea - Booty.mp4
Формат : MPEG-4
Профиль формата : Base Media / Version 2
Идентификатор кодека : mp42
Размер файла : 245 Мбайт
Продолжительность : 4 м. 18 с.
Режим общего битрейта : Переменный
Общий поток : 7946 Кбит/сек

Видео
Идентификатор : 1
Формат : AVC
Формат/Информация : Advanced Video Codec
Профиль формата : Baseline@L4.1
Параметр CABAC формата : Нет
Параметр ReFrames формата : 1 кадр
Параметр GOP формата : M=1, N=71
Идентификатор кодека : avc1
Идентификатор кодека/Информация : Advanced Video Coding
Продолжительность : 4 м. 18 с.
Продолжительность оригинала : 4 м. 18 с.
Вид битрейта : Переменный
Битрейт : 7625 Кбит/сек
Максимальный битрейт : 16,0 Мбит/сек
Ширина : 1920 пикселей
Высота : 1080 пикселей
Соотношение сторон : 16:9
Режим частоты кадров : Переменный
Частота кадров : 23,976 кадра/сек
Минимальная частота кадров : 23,974 кадра/сек
Максимальная частота кадров : 23,981 кадра/сек
Цветовое пространство : YUV
Субдискретизация насыщенности : 4:2:0
Битовая глубина : 8 бит
Тип развёртки : Прогрессивная
Бит/(Пиксели*Кадры) : 0.153
Размер потока : 235 Мбайт (96%)
Размер потока оригинала : 235 Мбайт (96%)
Язык : English
mdhd_Duration : 258300
Основные цвета : BT.709
Характеристики трансфера : BT.709
Коэффициенты матрицы : BT.709

Аудио
Идентификатор : 2
Формат : AAC
Формат/Информация : Advanced Audio Codec
Профиль формата : LC
Идентификатор кодека : 40
Продолжительность : 4 м. 18 с.
Продолжительность оригинала : 4 м. 18 с.
Вид битрейта : Переменный
Битрейт : 317 Кбит/сек
Каналы : 2 канала
Расположение каналов : Front: L R
Частота : 48,0 КГц
Метод сжатия : С потерями
Размер потока : 9,77 Мбайт (4%)
Размер потока оригинала : 9,77 Мбайт (4%)
Язык : English
mdhd_Duration : 258282

Общее
Полное имя : Lil Debbie - Wiggle.mp4
Формат : MPEG-4
Профиль формата : Base Media / Version 2
Идентификатор кодека : mp42
Размер файла : 197 Мбайт
Продолжительность : 2 м. 51 с.
Режим общего битрейта : Переменный
Общий поток : 9650 Кбит/сек
Дата кодирования : UTC 2014-12-23 18:30:57
Дата пометки : UTC 2014-12-23 18:31:16
©TIM : 00:00:00:20
©TSC : 24000
©TSZ : 1001

Видео
Идентификатор : 1
Формат : AVC
Формат/Информация : Advanced Video Codec
Профиль формата : High@L4.0
Параметр CABAC формата : Да
Параметр ReFrames формата : 3 кадра
Идентификатор кодека : avc1
Идентификатор кодека/Информация : Advanced Video Coding
Продолжительность : 2 м. 51 с.
Вид битрейта : Переменный
Битрейт : 9321 Кбит/сек
Максимальный битрейт : 9541 Кбит/сек
Ширина : 1920 пикселей
Высота : 1080 пикселей
Соотношение сторон : 16:9
Режим частоты кадров : Постоянный
Частота кадров : 23,976 кадра/сек
Стандарт вещания : NTSC
Цветовое пространство : YUV
Субдискретизация насыщенности : 4:2:0
Битовая глубина : 8 бит
Тип развёртки : Прогрессивная
Бит/(Пиксели*Кадры) : 0.187
Размер потока : 191 Мбайт (97%)
Язык : English
Дата кодирования : UTC 2014-12-23 18:30:57
Дата пометки : UTC 2014-12-23 18:30:57
Основные цвета : BT.709
Характеристики трансфера : BT.709
Коэффициенты матрицы : BT.709

Аудио
Идентификатор : 2
Формат : AAC
Формат/Информация : Advanced Audio Codec
Профиль формата : LC
Идентификатор кодека : 40
Продолжительность : 2 м. 51 с.
Продолжительность оригинала : 2 м. 51 с.
Вид битрейта : Переменный
Битрейт : 318 Кбит/сек
Максимальный битрейт : 425 Кбит/сек
Каналы : 2 канала
Расположение каналов : Front: L R
Частота : 44,1 КГц
Метод сжатия : С потерями
Размер потока : 6,49 Мбайт (3%)
Размер потока оригинала : 6,49 Мбайт (3%)
Язык : English
Дата кодирования : UTC 2014-12-23 18:30:57
Дата пометки : UTC 2014-12-23 18:30:57

Общее
Полное имя : Liza Fox - Динамит.mp4
Формат : MPEG-4
Профиль формата : Base Media / Version 2
Идентификатор кодека : mp42
Размер файла : 191 Мбайт
Продолжительность : 3 м. 18 с.
Режим общего битрейта : Переменный
Общий поток : 8104 Кбит/сек

Видео
Идентификатор : 1
Формат : AVC
Формат/Информация : Advanced Video Codec
Профиль формата : High@L4.0
Параметр CABAC формата : Да
Параметр ReFrames формата : 3 кадра
Идентификатор кодека : avc1
Идентификатор кодека/Информация : Advanced Video Coding
Продолжительность : 3 м. 18 с.
Продолжительность оригинала : 3 м. 18 с.
Вид битрейта : Переменный
Битрейт : 7782 Кбит/сек
Максимальный битрейт : 8000 Кбит/сек
Ширина : 1920 пикселей
Высота : 1080 пикселей
Соотношение сторон : 16:9
Режим частоты кадров : Постоянный
Частота кадров : 25,000 кадров/сек
Стандарт вещания : PAL
Цветовое пространство : YUV
Субдискретизация насыщенности : 4:2:0
Битовая глубина : 8 бит
Тип развёртки : Прогрессивная
Бит/(Пиксели*Кадры) : 0.150
Размер потока : 184 Мбайт (96%)
Размер потока оригинала : 184 Мбайт (96%)
Язык : English
mdhd_Duration : 198120
Основные цвета : BT.709
Характеристики трансфера : BT.709
Коэффициенты матрицы : BT.709

Аудио
Идентификатор : 2
Формат : AAC
Формат/Информация : Advanced Audio Codec
Профиль формата : LC
Идентификатор кодека : 40
Продолжительность : 3 м. 18 с.
Продолжительность оригинала : 3 м. 18 с.
Вид битрейта : Переменный
Битрейт : 317 Кбит/сек
Каналы : 2 канала
Расположение каналов : Front: L R
Частота : 48,0 КГц
Метод сжатия : С потерями
Размер потока : 7,50 Мбайт (4%)
Размер потока оригинала : 7,50 Мбайт (4%)
Язык : English
mdhd_Duration : 198143

Общее
Полное имя : Madison Beer - All For Love ft. Jack & Jack.mp4
Формат : MPEG-4
Профиль формата : Base Media / Version 2
Идентификатор кодека : mp42
Размер файла : 199 Мбайт
Продолжительность : 3 м. 30 с.
Режим общего битрейта : Переменный
Общий поток : 7897 Кбит/сек

Видео
Идентификатор : 1
Формат : AVC
Формат/Информация : Advanced Video Codec
Профиль формата : Baseline@L4.1
Параметр CABAC формата : Нет
Параметр ReFrames формата : 1 кадр
Параметр GOP формата : M=1, N=71
Идентификатор кодека : avc1
Идентификатор кодека/Информация : Advanced Video Coding
Продолжительность : 3 м. 30 с.
Продолжительность оригинала : 3 м. 30 с.
Вид битрейта : Переменный
Битрейт : 7801 Кбит/сек
Максимальный битрейт : 16,0 Мбит/сек
Ширина : 1920 пикселей
Высота : 1080 пикселей
Соотношение сторон : 16:9
Режим частоты кадров : Переменный
Частота кадров : 23,976 кадра/сек
Минимальная частота кадров : 23,974 кадра/сек
Максимальная частота кадров : 23,981 кадра/сек
Цветовое пространство : YUV
Субдискретизация насыщенности : 4:2:0
Битовая глубина : 8 бит
Тип развёртки : Прогрессивная
Бит/(Пиксели*Кадры) : 0.157
Размер потока : 196 Мбайт (99%)
Размер потока оригинала : 196 Мбайт (99%)
Язык : English
mdhd_Duration : 210877
Основные цвета : BT.709
Характеристики трансфера : BT.709
Коэффициенты матрицы : BT.709

Аудио
Идентификатор : 2
Формат : AAC
Формат/Информация : Advanced Audio Codec
Профиль формата : HE-AAC / LC
Идентификатор кодека : 40
Продолжительность : 3 м. 30 с.
Продолжительность оригинала : 3 м. 30 с.
Вид битрейта : Переменный
Битрейт : 96,0 Кбит/сек
Каналы : 2 канала
Расположение каналов : Front: L R
Частота : 48,0 КГц / 24,0 КГц
Метод сжатия : С потерями
Размер потока : 2,38 Мбайт (1%)
Размер потока оригинала : 2,38 Мбайт (1%)
Язык : English
mdhd_Duration : 210858

Общее
Полное имя : Mishelle - Ray of Light..mp4
Формат : MPEG-4
Профиль формата : Base Media / Version 2
Идентификатор кодека : mp42
Размер файла : 331 Мбайт
Продолжительность : 3 м. 53 с.
Режим общего битрейта : Переменный
Общий поток : 11,9 Мбит/сек

Видео
Идентификатор : 1
Формат : AVC
Формат/Информация : Advanced Video Codec
Профиль формата : High@L4.0
Параметр CABAC формата : Нет
Параметр ReFrames формата : 2 кадра
Параметр GOP формата : M=2, N=60
Идентификатор кодека : avc1
Идентификатор кодека/Информация : Advanced Video Coding
Продолжительность : 3 м. 53 с.
Продолжительность оригинала : 3 м. 53 с.
Вид битрейта : Переменный
Битрейт : 11,7 Мбит/сек
Максимальный битрейт : 12,7 Мбит/сек
Ширина : 1920 пикселей
Высота : 1080 пикселей
Соотношение сторон : 16:9
Режим частоты кадров : Постоянный
Частота кадров : 25,000 кадров/сек
Цветовое пространство : YUV
Субдискретизация насыщенности : 4:2:0
Битовая глубина : 8 бит
Тип развёртки : Прогрессивная
Бит/(Пиксели*Кадры) : 0.226
Размер потока : 327 Мбайт (99%)
Размер потока оригинала : 327 Мбайт (99%)
Язык : English
mdhd_Duration : 233680
Основные цвета : BT.709
Характеристики трансфера : BT.709
Коэффициенты матрицы : BT.709

Аудио
Идентификатор : 2
Формат : AAC
Формат/Информация : Advanced Audio Codec
Профиль формата : LC
Идентификатор кодека : 40
Продолжительность : 3 м. 53 с.
Продолжительность оригинала : 3 м. 53 с.
Вид битрейта : Переменный
Битрейт : 129 Кбит/сек
Каналы : 2 канала
Расположение каналов : Front: L R
Частота : 48,0 КГц
Метод сжатия : С потерями
Размер потока : 3,58 Мбайт (1%)
Размер потока оригинала : 3,58 Мбайт (1%)
Язык : English
mdhd_Duration : 233706

Общее
Полное имя : NIKITA - Вдыхай.mp4
Формат : MPEG-4
Профиль формата : Base Media / Version 2
Идентификатор кодека : mp42
Размер файла : 269 Мбайт
Продолжительность : 3 м. 37 с.
Режим общего битрейта : Переменный
Общий поток : 10,4 Мбит/сек
Дата кодирования : UTC 2015-11-06 08:19:13
Дата пометки : UTC 2015-11-06 08:19:17
©TIM : 00:00:00:00
©TSC : 25
©TSZ : 1

Видео
Идентификатор : 1
Формат : AVC
Формат/Информация : Advanced Video Codec
Профиль формата : High@L4.1
Параметр CABAC формата : Да
Параметр ReFrames формата : 3 кадра
Параметр GOP формата : M=3, N=25
Идентификатор кодека : avc1
Идентификатор кодека/Информация : Advanced Video Coding
Продолжительность : 3 м. 37 с.
Вид битрейта : Переменный
Битрейт : 10,1 Мбит/сек
Максимальный битрейт : 12,0 Мбит/сек
Ширина : 1920 пикселей
Высота : 1080 пикселей
Соотношение сторон : 16:9
Режим частоты кадров : Постоянный
Частота кадров : 25,000 кадров/сек
Стандарт вещания : PAL
Цветовое пространство : YUV
Субдискретизация насыщенности : 4:2:0
Битовая глубина : 8 бит
Тип развёртки : Чересстрочная
Порядок развёртки : Верхнее поле первое
Бит/(Пиксели*Кадры) : 0.194
Размер потока : 261 Мбайт (97%)
Язык : English
Дата кодирования : UTC 2015-11-06 08:19:13
Дата пометки : UTC 2015-11-06 08:19:13
Основные цвета : BT.709
Характеристики трансфера : BT.709
Коэффициенты матрицы : BT.709

Аудио
Идентификатор : 2
Формат : AAC
Формат/Информация : Advanced Audio Codec
Профиль формата : LC
Идентификатор кодека : 40
Продолжительность : 3 м. 37 с.
Продолжительность оригинала : 3 м. 37 с.
Вид битрейта : Переменный
Битрейт : 317 Кбит/сек
Максимальный битрейт : 405 Кбит/сек
Каналы : 2 канала
Расположение каналов : Front: L R
Частота : 48,0 КГц
Метод сжатия : С потерями
Задержка видео : 40 мс.
Размер потока : 8,21 Мбайт (3%)
Размер потока оригинала : 8,21 Мбайт (3%)
Язык : English
Дата кодирования : UTC 2015-11-06 08:19:13
Дата пометки : UTC 2015-11-06 08:19:13

Общее
Полное имя : Prince Royce feat. Jennifer Lopez & Pitbull - Back It Up.mp4
Формат : MPEG-4
Профиль формата : Base Media / Version 2
Идентификатор кодека : mp42
Размер файла : 226 Мбайт
Продолжительность : 3 м. 49 с.
Режим общего битрейта : Переменный
Общий поток : 8259 Кбит/сек

Видео
Идентификатор : 1
Формат : AVC
Формат/Информация : Advanced Video Codec
Профиль формата : Baseline@L4.1
Параметр CABAC формата : Нет
Параметр ReFrames формата : 1 кадр
Параметр GOP формата : M=1, N=71
Идентификатор кодека : avc1
Идентификатор кодека/Информация : Advanced Video Coding
Продолжительность : 3 м. 49 с.
Продолжительность оригинала : 3 м. 49 с.
Вид битрейта : Переменный
Битрейт : 7938 Кбит/сек
Максимальный битрейт : 16,0 Мбит/сек
Ширина : 1920 пикселей
Высота : 1080 пикселей
Соотношение сторон : 16:9
Режим частоты кадров : Переменный
Частота кадров : 23,976 кадра/сек
Минимальная частота кадров : 23,974 кадра/сек
Максимальная частота кадров : 23,981 кадра/сек
Цветовое пространство : YUV
Субдискретизация насыщенности : 4:2:0
Битовая глубина : 8 бит
Тип развёртки : Прогрессивная
Бит/(Пиксели*Кадры) : 0.160
Размер потока : 217 Мбайт (96%)
Размер потока оригинала : 217 Мбайт (96%)
Язык : English
mdhd_Duration : 229479
Основные цвета : BT.709
Характеристики трансфера : BT.709
Коэффициенты матрицы : BT.709

Аудио
Идентификатор : 2
Формат : AAC
Формат/Информация : Advanced Audio Codec
Профиль формата : LC
Идентификатор кодека : 40
Продолжительность : 3 м. 49 с.
Продолжительность оригинала : 3 м. 49 с.
Вид битрейта : Переменный
Битрейт : 317 Кбит/сек
Каналы : 2 канала
Расположение каналов : Front: L R
Частота : 48,0 КГц
Метод сжатия : С потерями
Размер потока : 8,68 Мбайт (4%)
Размер потока оригинала : 8,68 Мбайт (4%)
Язык : English
mdhd_Duration : 229461

Общее
Полное имя : Shakira - Try Everything.mp4
Формат : MPEG-4
Профиль формата : Base Media / Version 2
Идентификатор кодека : mp42
Размер файла : 191 Мбайт
Продолжительность : 3 м. 23 с.
Режим общего битрейта : Переменный
Общий поток : 7882 Кбит/сек

Видео
Идентификатор : 1
Формат : AVC
Формат/Информация : Advanced Video Codec
Профиль формата : High@L4.0
Параметр CABAC формата : Да
Параметр ReFrames формата : 8 кадров
Идентификатор кодека : avc1
Идентификатор кодека/Информация : Advanced Video Coding
Продолжительность : 3 м. 23 с.
Продолжительность оригинала : 3 м. 23 с.
Вид битрейта : Переменный
Битрейт : 7557 Кбит/сек
Максимальный битрейт : 40,0 Мбит/сек
Ширина : 1920 пикселей
Высота : 1080 пикселей
Соотношение сторон : 16:9
Режим частоты кадров : Переменный
Частота кадров : 23,976 кадра/сек
Минимальная частота кадров : 23,974 кадра/сек
Максимальная частота кадров : 23,981 кадра/сек
Цветовое пространство : YUV
Субдискретизация насыщенности : 4:2:0
Битовая глубина : 8 бит
Тип развёртки : Прогрессивная
Бит/(Пиксели*Кадры) : 0.152
Размер потока : 183 Мбайт (96%)
Размер потока оригинала : 183 Мбайт (96%)
Язык : English
mdhd_Duration : 203287

Аудио
Идентификатор : 2
Формат : AAC
Формат/Информация : Advanced Audio Codec
Профиль формата : LC
Идентификатор кодека : 40
Продолжительность : 3 м. 23 с.
Продолжительность оригинала : 3 м. 23 с.
Вид битрейта : Переменный
Битрейт : 320 Кбит/сек
Каналы : 2 канала
Расположение каналов : Front: L R
Частота : 48,0 КГц
Метод сжатия : С потерями
Размер потока : 7,76 Мбайт (4%)
Размер потока оригинала : 7,76 Мбайт (4%)
Язык : English
mdhd_Duration : 203328

Общее
Полное имя : Инвойс - Солнца Бит.mp4
Формат : MPEG-4
Профиль формата : Base Media / Version 2
Идентификатор кодека : mp42
Размер файла : 190 Мбайт
Продолжительность : 3 м. 14 с.
Режим общего битрейта : Переменный
Общий поток : 8171 Кбит/сек
Дата кодирования : UTC 2014-06-23 15:00:06
Дата пометки : UTC 2014-06-23 15:00:09
©TIM : 00:00:00:00
©TSC : 25
©TSZ : 1

Видео
Идентификатор : 1
Формат : AVC
Формат/Информация : Advanced Video Codec
Профиль формата : High@L4.0
Параметр CABAC формата : Да
Параметр ReFrames формата : 3 кадра
Идентификатор кодека : avc1
Идентификатор кодека/Информация : Advanced Video Coding
Продолжительность : 3 м. 14 с.
Вид битрейта : Переменный
Битрейт : 7850 Кбит/сек
Максимальный битрейт : 8000 Кбит/сек
Ширина : 1920 пикселей
Высота : 1080 пикселей
Соотношение сторон : 16:9
Режим частоты кадров : Постоянный
Частота кадров : 25,000 кадров/сек
Стандарт вещания : PAL
Цветовое пространство : YUV
Субдискретизация насыщенности : 4:2:0
Битовая глубина : 8 бит
Тип развёртки : Прогрессивная
Бит/(Пиксели*Кадры) : 0.151
Размер потока : 182 Мбайт (96%)
Язык : English
Дата кодирования : UTC 2014-06-23 15:00:06
Дата пометки : UTC 2014-06-23 15:00:06
Основные цвета : BT.709
Характеристики трансфера : BT.709
Коэффициенты матрицы : BT.709

Аудио
Идентификатор : 2
Формат : AAC
Формат/Информация : Advanced Audio Codec
Профиль формата : LC
Идентификатор кодека : 40
Продолжительность : 3 м. 14 с.
Продолжительность оригинала : 3 м. 14 с.
Вид битрейта : Переменный
Битрейт : 317 Кбит/сек
Максимальный битрейт : 410 Кбит/сек
Каналы : 2 канала
Расположение каналов : Front: L R
Частота : 48,0 КГц
Метод сжатия : С потерями
Размер потока : 7,37 Мбайт (4%)
Размер потока оригинала : 7,38 Мбайт (4%)
Язык : English
Дата кодирования : UTC 2014-06-23 15:00:06
Дата пометки : UTC 2014-06-23 15:00:06

Общее
Полное имя : Ирина Ортман - Заморочки.mp4
Формат : MPEG-4
Профиль формата : Base Media / Version 2
Идентификатор кодека : mp42
Размер файла : 228 Мбайт
Продолжительность : 3 м. 50 с.
Режим общего битрейта : Переменный
Общий поток : 8295 Кбит/сек
Дата кодирования : UTC 2014-05-15 07:11:02
Дата пометки : UTC 2014-05-15 07:11:05
©TIM : 00:00:00:00
©TSC : 25
©TSZ : 1

Видео
Идентификатор : 1
Формат : AVC
Формат/Информация : Advanced Video Codec
Профиль формата : High@L4.0
Параметр CABAC формата : Да
Параметр ReFrames формата : 3 кадра
Идентификатор кодека : avc1
Идентификатор кодека/Информация : Advanced Video Coding
Продолжительность : 3 м. 50 с.
Вид битрейта : Переменный
Битрейт : 8000 Кбит/сек
Ширина : 1920 пикселей
Высота : 1080 пикселей
Соотношение сторон : 16:9
Режим частоты кадров : Постоянный
Частота кадров : 25,000 кадров/сек
Стандарт вещания : PAL
Цветовое пространство : YUV
Субдискретизация насыщенности : 4:2:0
Битовая глубина : 8 бит
Тип развёртки : Прогрессивная
Бит/(Пиксели*Кадры) : 0.154
Размер потока : 219 Мбайт (96%)
Язык : English
Дата кодирования : UTC 2014-05-15 07:11:02
Дата пометки : UTC 2014-05-15 07:11:02
Основные цвета : BT.709
Характеристики трансфера : BT.709
Коэффициенты матрицы : BT.709

Аудио
Идентификатор : 2
Формат : AAC
Формат/Информация : Advanced Audio Codec
Профиль формата : LC
Идентификатор кодека : 40
Продолжительность : 3 м. 50 с.
Продолжительность оригинала : 3 м. 50 с.
Вид битрейта : Переменный
Битрейт : 317 Кбит/сек
Максимальный битрейт : 415 Кбит/сек
Каналы : 2 канала
Расположение каналов : Front: L R
Частота : 48,0 КГц
Метод сжатия : С потерями
Размер потока : 8,74 Мбайт (4%)
Размер потока оригинала : 8,74 Мбайт (4%)
Язык : English
Дата кодирования : UTC 2014-05-15 07:11:02
Дата пометки : UTC 2014-05-15 07:11:02

Общее
Полное имя : Мот feat. Бьянка - Абсолютно Всё.mp4
Формат : MPEG-4
Профиль формата : Base Media / Version 2
Идентификатор кодека : mp42
Размер файла : 250 Мбайт
Продолжительность : 3 м. 24 с.
Режим общего битрейта : Переменный
Общий поток : 10,3 Мбит/сек
Дата кодирования : UTC 2015-11-05 14:37:04
Дата пометки : UTC 2015-11-05 14:37:07
©TIM : 00:00:00:00
©TSC : 25
©TSZ : 1

Видео
Идентификатор : 1
Формат : AVC
Формат/Информация : Advanced Video Codec
Профиль формата : High@L4.1
Параметр CABAC формата : Да
Параметр ReFrames формата : 3 кадра
Идентификатор кодека : avc1
Идентификатор кодека/Информация : Advanced Video Coding
Продолжительность : 3 м. 24 с.
Вид битрейта : Переменный
Битрейт : 9972 Кбит/сек
Максимальный битрейт : 12,0 Мбит/сек
Ширина : 1920 пикселей
Высота : 1080 пикселей
Соотношение сторон : 16:9
Режим частоты кадров : Постоянный
Частота кадров : 25,000 кадров/сек
Стандарт вещания : PAL
Цветовое пространство : YUV
Субдискретизация насыщенности : 4:2:0
Битовая глубина : 8 бит
Тип развёртки : Чересстрочная
Порядок развёртки : Верхнее поле первое
Бит/(Пиксели*Кадры) : 0.192
Размер потока : 243 Мбайт (97%)
Язык : English
Дата кодирования : UTC 2015-11-05 14:37:04
Дата пометки : UTC 2015-11-05 14:37:04
Основные цвета : BT.709
Характеристики трансфера : BT.709
Коэффициенты матрицы : BT.709

Аудио
Идентификатор : 2
Формат : AAC
Формат/Информация : Advanced Audio Codec
Профиль формата : LC
Идентификатор кодека : 40
Продолжительность : 3 м. 24 с.
Продолжительность оригинала : 3 м. 24 с.
Вид битрейта : Переменный
Битрейт : 317 Кбит/сек
Максимальный битрейт : 399 Кбит/сек
Каналы : 2 канала
Расположение каналов : Front: L R
Частота : 48,0 КГц
Метод сжатия : С потерями
Задержка видео : 40 мс.
Размер потока : 7,72 Мбайт (3%)
Размер потока оригинала : 7,72 Мбайт (3%)
Язык : English
Дата кодирования : UTC 2015-11-05 14:37:04
Дата пометки : UTC 2015-11-05 14:37:04

Общее
Полное имя : Нюша - Где ты, там я.mp4
Формат : MPEG-4
Профиль формата : Base Media / Version 2
Идентификатор кодека : mp42
Размер файла : 308 Мбайт
Продолжительность : 4 м. 10 с.
Режим общего битрейта : Переменный
Общий поток : 10,3 Мбит/сек
Дата кодирования : UTC 2015-06-29 13:57:21
Дата пометки : UTC 2015-06-29 13:57:26
©TIM : 00:00:00:00
©TSC : 25
©TSZ : 1

Видео
Идентификатор : 1
Формат : AVC
Формат/Информация : Advanced Video Codec
Профиль формата : High@L4.1
Параметр CABAC формата : Да
Параметр ReFrames формата : 3 кадра
Идентификатор кодека : avc1
Идентификатор кодека/Информация : Advanced Video Coding
Продолжительность : 4 м. 10 с.
Вид битрейта : Переменный
Битрейт : 9997 Кбит/сек
Максимальный битрейт : 12,0 Мбит/сек
Ширина : 1920 пикселей
Высота : 1080 пикселей
Соотношение сторон : 16:9
Режим частоты кадров : Постоянный
Частота кадров : 25,000 кадров/сек
Стандарт вещания : PAL
Цветовое пространство : YUV
Субдискретизация насыщенности : 4:2:0
Битовая глубина : 8 бит
Тип развёртки : Чересстрочная
Порядок развёртки : Верхнее поле первое
Бит/(Пиксели*Кадры) : 0.193
Размер потока : 298 Мбайт (97%)
Язык : English
Дата кодирования : UTC 2015-06-29 13:57:21
Дата пометки : UTC 2015-06-29 13:57:21
Основные цвета : BT.709
Характеристики трансфера : BT.709
Коэффициенты матрицы : BT.709

Аудио
Идентификатор : 2
Формат : AAC
Формат/Информация : Advanced Audio Codec
Профиль формата : LC
Идентификатор кодека : 40
Продолжительность : 4 м. 10 с.
Продолжительность оригинала : 4 м. 10 с.
Вид битрейта : Переменный
Битрейт : 317 Кбит/сек
Максимальный битрейт : 407 Кбит/сек
Каналы : 2 канала
Расположение каналов : Front: L R
Частота : 48,0 КГц
Метод сжатия : С потерями
Задержка видео : 40 мс.
Размер потока : 9,46 Мбайт (3%)
Размер потока оригинала : 9,46 Мбайт (3%)
Язык : English
Дата кодирования : UTC 2015-06-29 13:57:21
Дата пометки : UTC 2015-06-29 13:57:21

Общее
Полное имя : Ольга Романовская - Музыка.mp4
Формат : MPEG-4
Профиль формата : Base Media / Version 2
Идентификатор кодека : mp42
Размер файла : 233 Мбайт
Продолжительность : 3 м. 52 с.
Режим общего битрейта : Переменный
Общий поток : 8395 Кбит/сек
Дата кодирования : UTC 2014-10-16 10:14:00
Дата пометки : UTC 2014-10-16 10:14:03
©TIM : 00:00:00:00
©TSC : 25
©TSZ : 1

Видео
Идентификатор : 1
Формат : AVC
Формат/Информация : Advanced Video Codec
Профиль формата : Main@L4.2
Параметр CABAC формата : Да
Параметр ReFrames формата : 3 кадра
Идентификатор кодека : avc1
Идентификатор кодека/Информация : Advanced Video Coding
Продолжительность : 3 м. 52 с.
Вид битрейта : Переменный
Битрейт : 8074 Кбит/сек
Максимальный битрейт : 12,0 Мбит/сек
Ширина : 1920 пикселей
Высота : 1080 пикселей
Соотношение сторон : 16:9
Режим частоты кадров : Постоянный
Частота кадров : 25,000 кадров/сек
Стандарт вещания : PAL
Цветовое пространство : YUV
Субдискретизация насыщенности : 4:2:0
Битовая глубина : 8 бит
Тип развёртки : Прогрессивная
Бит/(Пиксели*Кадры) : 0.156
Размер потока : 224 Мбайт (96%)
Язык : English
Дата кодирования : UTC 2014-10-16 10:14:00
Дата пометки : UTC 2014-10-16 10:14:00

Аудио
Идентификатор : 2
Формат : AAC
Формат/Информация : Advanced Audio Codec
Профиль формата : LC
Идентификатор кодека : 40
Продолжительность : 3 м. 52 с.
Продолжительность оригинала : 3 м. 52 с.
Вид битрейта : Переменный
Битрейт : 317 Кбит/сек
Максимальный битрейт : 412 Кбит/сек
Каналы : 2 канала
Расположение каналов : Front: L R
Частота : 48,0 КГц
Метод сжатия : С потерями
Размер потока : 8,81 Мбайт (4%)
Размер потока оригинала : 8,81 Мбайт (4%)
Язык : English
Дата кодирования : UTC 2014-10-16 10:14:00
Дата пометки : UTC 2014-10-16 10:14:00

Общее
Полное имя : Потап и Настя - Уди Уди.mp4
Формат : MPEG-4
Профиль формата : Base Media / Version 2
Идентификатор кодека : mp42
Размер файла : 199 Мбайт
Продолжительность : 3 м. 18 с.
Режим общего битрейта : Переменный
Общий поток : 8421 Кбит/сек
Дата кодирования : UTC 2014-08-29 15:03:38
Дата пометки : UTC 2014-08-29 15:03:40
©TIM : 00:00:00:00
©TSC : 25
©TSZ : 1

Видео
Идентификатор : 1
Формат : AVC
Формат/Информация : Advanced Video Codec
Профиль формата : Main@L4.2
Параметр CABAC формата : Да
Параметр ReFrames формата : 3 кадра
Идентификатор кодека : avc1
Идентификатор кодека/Информация : Advanced Video Coding
Продолжительность : 3 м. 18 с.
Вид битрейта : Переменный
Битрейт : 8099 Кбит/сек
Максимальный битрейт : 12,0 Мбит/сек
Ширина : 1920 пикселей
Высота : 1080 пикселей
Соотношение сторон : 16:9
Режим частоты кадров : Постоянный
Частота кадров : 25,000 кадров/сек
Стандарт вещания : PAL
Цветовое пространство : YUV
Субдискретизация насыщенности : 4:2:0
Битовая глубина : 8 бит
Тип развёртки : Прогрессивная
Бит/(Пиксели*Кадры) : 0.156
Размер потока : 192 Мбайт (96%)
Язык : English
Дата кодирования : UTC 2014-08-29 15:03:38
Дата пометки : UTC 2014-08-29 15:03:38

Аудио
Идентификатор : 2
Формат : AAC
Формат/Информация : Advanced Audio Codec
Профиль формата : LC
Идентификатор кодека : 40
Продолжительность : 3 м. 18 с.
Продолжительность оригинала : 3 м. 18 с.
Вид битрейта : Переменный
Битрейт : 317 Кбит/сек
Максимальный битрейт : 402 Кбит/сек
Каналы : 2 канала
Расположение каналов : Front: L R
Частота : 48,0 КГц
Метод сжатия : С потерями
Размер потока : 7,52 Мбайт (4%)
Размер потока оригинала : 7,52 Мбайт (4%)
Язык : English
Дата кодирования : UTC 2014-08-29 15:03:38
Дата пометки : UTC 2014-08-29 15:03:38

Общее
Полное имя : Потап и Настя feat. Бьянка - Стиль собачки.mp4
Формат : MPEG-4
Профиль формата : Base Media / Version 2
Идентификатор кодека : mp42
Размер файла : 293 Мбайт
Продолжительность : 3 м. 59 с.
Режим общего битрейта : Переменный
Общий поток : 10,3 Мбит/сек
Дата кодирования : UTC 2015-10-08 14:28:34
Дата пометки : UTC 2015-10-08 14:28:38
©TIM : 00:00:00:00
©TSC : 25
©TSZ : 1

Видео
Идентификатор : 1
Формат : AVC
Формат/Информация : Advanced Video Codec
Профиль формата : High@L4.1
Параметр CABAC формата : Да
Параметр ReFrames формата : 3 кадра
Идентификатор кодека : avc1
Идентификатор кодека/Информация : Advanced Video Coding
Продолжительность : 3 м. 59 с.
Вид битрейта : Переменный
Битрейт : 9968 Кбит/сек
Максимальный битрейт : 12,0 Мбит/сек
Ширина : 1920 пикселей
Высота : 1080 пикселей
Соотношение сторон : 16:9
Режим частоты кадров : Постоянный
Частота кадров : 25,000 кадров/сек
Стандарт вещания : PAL
Цветовое пространство : YUV
Субдискретизация насыщенности : 4:2:0
Битовая глубина : 8 бит
Тип развёртки : Чересстрочная
Порядок развёртки : Верхнее поле первое
Бит/(Пиксели*Кадры) : 0.192
Размер потока : 284 Мбайт (97%)
Язык : English
Дата кодирования : UTC 2015-10-08 14:28:34
Дата пометки : UTC 2015-10-08 14:28:34
Основные цвета : BT.709
Характеристики трансфера : BT.709
Коэффициенты матрицы : BT.709

Аудио
Идентификатор : 2
Формат : AAC
Формат/Информация : Advanced Audio Codec
Профиль формата : LC
Идентификатор кодека : 40
Продолжительность : 3 м. 59 с.
Продолжительность оригинала : 3 м. 59 с.
Вид битрейта : Переменный
Битрейт : 317 Кбит/сек
Максимальный битрейт : 419 Кбит/сек
Каналы : 2 канала
Расположение каналов : Front: L R
Частота : 48,0 КГц
Метод сжатия : С потерями
Задержка видео : 40 мс.
Размер потока : 9,04 Мбайт (3%)
Размер потока оригинала : 9,04 Мбайт (3%)
Язык : English
Дата кодирования : UTC 2015-10-08 14:28:34
Дата пометки : UTC 2015-10-08 14:28:34

Общее
Полное имя : Сергей Лазарев - Это Всё Она.mp4
Формат : MPEG-4
Профиль формата : Base Media / Version 2
Идентификатор кодека : mp42
Размер файла : 474 Мбайт
Продолжительность : 4 м. 5 с.
Режим общего битрейта : Переменный
Общий поток : 16,2 Мбит/сек
Дата кодирования : UTC 2015-08-19 15:09:04
Дата пометки : UTC 2015-08-19 15:09:10
©TIM : 00:00:00:00
©TSC : 25
©TSZ : 1

Видео
Идентификатор : 1
Формат : AVC
Формат/Информация : Advanced Video Codec
Профиль формата : High@L4.2
Параметр CABAC формата : Да
Параметр ReFrames формата : 3 кадра
Параметр GOP формата : M=3, N=25
Идентификатор кодека : avc1
Идентификатор кодека/Информация : Advanced Video Coding
Продолжительность : 4 м. 5 с.
Вид битрейта : Переменный
Битрейт : 16,0 Мбит/сек
Ширина : 1920 пикселей
Высота : 1080 пикселей
Соотношение сторон : 16:9
Режим частоты кадров : Постоянный
Частота кадров : 25,000 кадров/сек
Стандарт вещания : PAL
Цветовое пространство : YUV
Субдискретизация насыщенности : 4:2:0
Битовая глубина : 8 бит
Тип развёртки : Прогрессивная
Бит/(Пиксели*Кадры) : 0.309
Размер потока : 465 Мбайт (98%)
Язык : English
Дата кодирования : UTC 2015-08-19 15:09:04
Дата пометки : UTC 2015-08-19 15:09:04
Основные цвета : BT.709
Характеристики трансфера : BT.709
Коэффициенты матрицы : BT.709

Аудио
Идентификатор : 2
Формат : AAC
Формат/Информация : Advanced Audio Codec
Профиль формата : LC
Идентификатор кодека : 40
Продолжительность : 4 м. 5 с.
Продолжительность оригинала : 4 м. 5 с.
Вид битрейта : Переменный
Битрейт : 317 Кбит/сек
Максимальный битрейт : 412 Кбит/сек
Каналы : 2 канала
Расположение каналов : Front: L R
Частота : 48,0 КГц
Метод сжатия : С потерями
Размер потока : 9,28 Мбайт (2%)
Размер потока оригинала : 9,29 Мбайт (2%)
Язык : English
Дата кодирования : UTC 2015-08-19 15:09:04
Дата пометки : UTC 2015-08-19 15:09:04

Общее
Полное имя : Ханна - Мама, я влюбилась.mp4
Формат : MPEG-4
Профиль формата : Base Media / Version 2
Идентификатор кодека : mp42
Размер файла : 159 Мбайт
Продолжительность : 2 м. 40 с.
Режим общего битрейта : Переменный
Общий поток : 8326 Кбит/сек
Дата кодирования : UTC 2015-04-24 11:14:23
Дата пометки : UTC 2015-04-24 11:14:25
©TIM : 00:00:00:00
©TSC : 25
©TSZ : 1

Видео
Идентификатор : 1
Формат : AVC
Формат/Информация : Advanced Video Codec
Профиль формата : Main@L4.2
Параметр CABAC формата : Да
Параметр ReFrames формата : 3 кадра
Идентификатор кодека : avc1
Идентификатор кодека/Информация : Advanced Video Coding
Продолжительность : 2 м. 40 с.
Битрейт : 8005 Кбит/сек
Ширина : 1920 пикселей
Высота : 1080 пикселей
Соотношение сторон : 16:9
Режим частоты кадров : Постоянный
Частота кадров : 25,000 кадров/сек
Стандарт вещания : PAL
Цветовое пространство : YUV
Субдискретизация насыщенности : 4:2:0
Битовая глубина : 8 бит
Тип развёртки : Прогрессивная
Бит/(Пиксели*Кадры) : 0.154
Размер потока : 153 Мбайт (96%)
Язык : English
Дата кодирования : UTC 2015-04-24 11:14:23
Дата пометки : UTC 2015-04-24 11:14:23
Основные цвета : BT.709
Характеристики трансфера : BT.709
Коэффициенты матрицы : BT.709

Аудио
Идентификатор : 2
Формат : AAC
Формат/Информация : Advanced Audio Codec
Профиль формата : LC
Идентификатор кодека : 40
Продолжительность : 2 м. 40 с.
Продолжительность оригинала : 2 м. 40 с.
Вид битрейта : Переменный
Битрейт : 317 Кбит/сек
Максимальный битрейт : 406 Кбит/сек
Каналы : 2 канала
Расположение каналов : Front: L R
Частота : 48,0 КГц
Метод сжатия : С потерями
Размер потока : 6,05 Мбайт (4%)
Размер потока оригинала : 6,06 Мбайт (4%)
Язык : English
Дата кодирования : UTC 2015-04-24 11:14:23
Дата пометки : UTC 2015-04-24 11:14:23

Общее
Полное имя : Ханна - Потеряла голову.mp4
Формат : MPEG-4
Профиль формата : Base Media / Version 2
Идентификатор кодека : mp42
Размер файла : 266 Мбайт
Продолжительность : 3 м. 35 с.
Режим общего битрейта : Переменный
Общий поток : 10,4 Мбит/сек
Дата кодирования : UTC 2015-11-23 14:42:58
Дата пометки : UTC 2015-11-23 14:43:01
©TIM : 00:00:00:00
©TSC : 25
©TSZ : 1

Видео
Идентификатор : 1
Формат : AVC
Формат/Информация : Advanced Video Codec
Профиль формата : High@L4.1
Параметр CABAC формата : Да
Параметр ReFrames формата : 3 кадра
Идентификатор кодека : avc1
Идентификатор кодека/Информация : Advanced Video Coding
Продолжительность : 3 м. 35 с.
Вид битрейта : Переменный
Битрейт : 10,1 Мбит/сек
Максимальный битрейт : 12,0 Мбит/сек
Ширина : 1920 пикселей
Высота : 1080 пикселей
Соотношение сторон : 16:9
Режим частоты кадров : Постоянный
Частота кадров : 25,000 кадров/сек
Стандарт вещания : PAL
Цветовое пространство : YUV
Субдискретизация насыщенности : 4:2:0
Битовая глубина : 8 бит
Тип развёртки : Чересстрочная
Порядок развёртки : Верхнее поле первое
Бит/(Пиксели*Кадры) : 0.194
Размер потока : 258 Мбайт (97%)
Язык : English
Дата кодирования : UTC 2015-11-23 14:42:58
Дата пометки : UTC 2015-11-23 14:42:58
Основные цвета : BT.709
Характеристики трансфера : BT.709
Коэффициенты матрицы : BT.709

Аудио
Идентификатор : 2
Формат : AAC
Формат/Информация : Advanced Audio Codec
Профиль формата : LC
Идентификатор кодека : 40
Продолжительность : 3 м. 35 с.
Продолжительность оригинала : 3 м. 35 с.
Вид битрейта : Переменный
Битрейт : 317 Кбит/сек
Максимальный битрейт : 407 Кбит/сек
Каналы : 2 канала
Расположение каналов : Front: L R
Частота : 48,0 КГц
Метод сжатия : С потерями
Задержка видео : 40 мс.
Размер потока : 8,13 Мбайт (3%)
Размер потока оригинала : 8,14 Мбайт (3%)
Язык : English
Дата кодирования : UTC 2015-11-23 14:42:58
Дата пометки : UTC 2015-11-23 14:42:58
pb.wtf



Скачать Сборник видеоклипов - поп хиты через торрент http://s09.radikal.ru/i182/1603/a2/6199eab6b110.png Скачать фильм Сборник видеоклипов - поп хиты [2015 - 2016 г., Pop, HDTVRip 1080p]через торрент бесплантно в хорошем качестве ТреклистAgent Provocateur - L'Agentalyosha - unarmedBecky G - Can't Stop Dancin'Ciara - Dance Like We're Making LoveDeepcentral ... 9.3 10 10
Info! Золотая раздача, скачанное не засчитывается.
Торрент: Зарегистрирован [2016-03-29 13:46] · скачан: 266 раз
Статус: √ проверено
Размер: 6.72 GB
Как cкачать? Как скачать Сборник видеоклипов - поп хиты через торрент | UTorrent

% Раздел Тема Автор DL S | L
Клипы [ 2.2 GB ] Сборник видеоклипов - поп хиты 2 [2016 Pop WEBRip 1080p] overpower4dc Скачать
1 | 0
Клипы [ 3.49 GB ] Сборник видеоклипов - поп хиты [2016 Pop WEBRip 1080p] overpower4dc Скачать
1 | 0

28-11-2019 20:33  

Отключить всю рекламу на сайте

    Дорогой пользователь! Огромная просьба, поблагодарите релизера, оцените раздачу и оставьте свои комментарий, если Вы скачали Сборник видеоклипов - поп хиты через торрент бесплатно! Внесите свою лепту в развитие PiratBit!
    Комментировать посты могут только пользователи прошедшие не сложную регистрацию
    Показать сообщения:    

    Сборник видеоклипов - поп хиты через торрент
    Скачать бесплатно Сборник видеоклипов - поп хиты
    Сборник видеоклипов - поп хиты скачать торрент
    Сборник видеоклипов - поп хиты смотреть онлайн
    Cкачать фильм Сборник видеоклипов - поп хиты бесплатно
    Сборник видеоклипов - поп хиты скачать торрент в хорошем качестве
    Сборник видеоклипов - поп хиты смотреть онлайн бесплатно в хорошем качестве


    Вы не можете начинать темы
    Вы не можете отвечать на сообщения
    Вы не можете редактировать свои сообщения
    Вы не можете удалять свои сообщения
    Вы не можете голосовать в опросах
    Вы не можете прикреплять файлы к сообщениям
    Вы можете скачивать файлы