Ссылка на приватное зеркало всего за 1$. Внимание количество ограничено!!!

iTunes

1+1

iTunes

мы

WEB-DL

1

iTunes

Чернобыль

iTunes

Ральф против интернета

Лицензия

ПШазам

Лицензия

Оно 2

Лицензия

30
pack

Вам бонус

ВАЖНО

!!Акция!!

Alien_RageХит недели

RePack

Resident Evil 21

ИГРА 18+

pack

RePack

jed

!!Акция!!

Alien_Rage

RePack

fifa19

RePack

Assassins Creed: Odyssey

RePack

NEED FOR SPEED™ PAYBACK

3 сезон

9 сезон

Бесстыжие 9 сезон

Все сериалы

все сериалы на PB.wtf

RePack

FAR CRY 5
Ребята, катастрофически не хватает 1900р. для оплаты серверов за Октябрь (всвязи с блокировками трафик упал в 3 раза), 1-2р., выручайте.
  

Зловещие Алкаши: Бухое начало / The Evil Dead (Сэм Рэйми) [1981 г., ужасы, BDRip, Профессиональный (одноголосый)] pb.wtf

Скачать  

29-03-2016 18:51 Зловещие Алкаши: Бухое начало Скачать торрент  

Зловещие Алкаши: Бухое начало / The Evil Dead
Год выпуска: 1981
Страна: США
Жанр: ужасы
Продолжительность: 90 мин. / 01:30
Перевод: Профессиональный (одноголосый)

Режиссер: Сэм Рэйми
Продюссер: Брюс Кэмпбелл, Гари Холт, Сэм Рэйми
Сценарий: Сэм Рэйми

Бюджет: $350 000
Премьера в мире: 15 октября 1981

IMDB 7.60 (135 342)


В ролях: Брюс Кэмпбелл, Эллен Сэндвайсс, Ричард ДеМэннинкор, Бетси Бейкер, Тереза Тилли, Филип А. Гиллис, Дороти Тейперт, Шерил Гаттридж, Барбара Кэри, Дэвид Хортон

Описание: Эш и его друзья, едут в тихий лесной домик, рассчитывая вместе приятно провести время. Случайно послушав старинный магнитофон они пробуждают алкогольного демона, который настроен всех споить и убить.

Качество: BDRip
Формат: MKV
Видео кодек: H.264
Аудио кодек: AC3
Видео: 1920x1080, 30 fps
Аудио#1: 48 kHz, AC3, 320 Кбит/сек
Релиз от: DEADPOOL PROJECT
скриншот  
скриншот  
скриншот  





General
Unique ID : 233699409294095445580168134883652935965 (0xAFD0DE790BB2997F86CF1D03D82C211D)
Complete name : D:\Zloveshie_Alcashi1 BDrip.2016_by deadpool_project.mkv
Format : Matroska
Format version : Version 2
File size : 9.06 GiB
Duration : 1h 25mn
Overall bit rate : 15.2 Mbps
Encoded date : UTC 2016-03-27 21:11:27
Writing application : Lavf52.93.0
Writing library : Lavf52.93.0

Video
ID : 1
Format : AVC
Format/Info : Advanced Video Codec
Format profile : Baseline@L4.1
Format settings, CABAC : No
Format settings, ReFrames : 1 frame
Codec ID : V_MPEG4/ISO/AVC
Duration : 1h 25mn
Bit rate : 15.0 Mbps
Width : 1 920 pixels
Height : 1 080 pixels
Display aspect ratio : 16:9
Frame rate mode : Constant
Frame rate : 30.000 fps
Color space : YUV
Chroma subsampling : 4:2:0
Bit depth : 8 bits
Scan type : Progressive
Bits/(Pixel*Frame) : 0.241
Stream size : 8.69 GiB (96%)
Writing library : x264 core 112
Encoding settings : cabac=0 / ref=1 / deblock=1:0:0 / analyse=0x1:0x111 / me=hex / subme=7 / psy=1 / psy_rd=1.00:0.00 / mixed_ref=0 / me_range=16 / chroma_me=1 / trellis=1 / 8x8dct=0 / cqm=0 / deadzone=21,11 / fast_pskip=1 / chroma_qp_offset=-2 / threads=1 / sliced_threads=0 / nr=0 / decimate=1 / interlaced=0 / constrained_intra=0 / bframes=0 / weightp=0 / keyint=250 / keyint_min=25 / scenecut=40 / intra_refresh=0 / rc_lookahead=40 / rc=abr / mbtree=1 / bitrate=15000 / ratetol=1.0 / qcomp=0.60 / qpmin=10 / qpmax=51 / qpstep=4 / ip_ratio=1.41 / aq=1:1.00
Language : English
Default : Yes
Forced : No
Encoded date : UTC 2016-03-27 21:11:27

Audio
ID : 2
Format : AC-3
Format/Info : Audio Coding 3
Mode extension : CM (complete main)
Format settings, Endianness : Big
Codec ID : A_AC3
Duration : 1h 25mn
Bit rate mode : Constant
Bit rate : 320 Kbps
Channel(s) : 2 channels
Channel positions : Front: L R
Sampling rate : 48.0 KHz
Bit depth : 16 bits
Compression mode : Lossy
Stream size : 196 MiB (2%)
Language : English
Default : Yes
Forced : No
Encoded date : UTC 2016-03-27 21:11:27

Зловещие алкаши скачать торрент

pb.wtf



Торрент не зареган: Не зарегистрирован ||
Добавлен: 2016-03-29 18:51
Скачано: 0 раз
% Раздел Тема Автор DL S | L
# Фильмы [HD 720p, 1080p] (Звук Cam, VO, DVO) [ 9.06 GB ] Зловещие Алкаши: Бухое начало / The Evil Dead [1981 пародия BDRip 1080р] VO [DEADPOOL PROJECT] Angelus666 Скачать
1 | 0

28-11-2019 20:33  

Отключить всю рекламу на сайте

29-03-2016 18:55 Зловещие Алкаши: Бухое начало Скачать торрент  

Просьба удалить, это форум глюкнул.pb.wtf



    Дорогой пользователь! Огромная просьба, поблагодарите релизера, оцените раздачу и оставьте свои комментарий, если Вы скачали Зловещие Алкаши: Бухое начало через торрент бесплатно! Внесите свою лепту в развитие PiratBit!
    Комментировать посты могут только пользователи прошедшие не сложную регистрацию
    Показать сообщения:    

    Зловещие Алкаши: Бухое начало через торрент
    Скачать бесплатно Зловещие Алкаши: Бухое начало
    Зловещие Алкаши: Бухое начало скачать торрент
    Зловещие Алкаши: Бухое начало смотреть онлайн
    Cкачать фильм Зловещие Алкаши: Бухое начало бесплатно
    Зловещие Алкаши: Бухое начало скачать торрент в хорошем качестве
    Зловещие Алкаши: Бухое начало смотреть онлайн бесплатно в хорошем качестве


    Вы не можете начинать темы
    Вы не можете отвечать на сообщения
    Вы не можете редактировать свои сообщения
    Вы не можете удалять свои сообщения
    Вы не можете голосовать в опросах
    Вы не можете прикреплять файлы к сообщениям
    Вы можете скачивать файлы