Ссылка на приватное зеркало нашего сайта всего за 1$. Внимание количество ограничено!!!

2 сезон

iTunes

1 сезон

1

iTunes

iTunes

iTunes

1 сезон

RePack

30

ИГРА 18+

pack

ВАЖНО

!!Акция!!

Alien_RageХит недели

RePack

MK11
pack

Забери бонус

RePack

jed

!!Акция!!

Alien_Rage

RePack

fifa19

RePack

Assassins Creed: Odyssey

RePack

NEED FOR SPEED™ PAYBACK

4 сезон

9 сезон

Бесстыжие 9 сезон

Все сериалы

все сериалы на PB.wtf

RePack

FAR CRY 5
  

Ничего себе поездочка / Joy Ride (Джон Дал) [2001, триллер, детектив, BDRip 1080p by msltel] DUB, 3 x MVO pb.wtf

Ничего себе поездочка через торрент pb.wtf

Размер: 12.95 GB | Добавлен: 4 года 6 мес. назад | Торрент скачан:59 раз
Скачать  

31-03-2016 09:40 Ничего себе поездочка Скачать торрент  

Название: Ничего себе поездочка
Оригинальное название: Joy Ride
Год выпуска: 2001
Страна: США
Жанр: триллер, детектив
Продолжительность: 01:37:11
Перевод: дублированный, профессиональный многоголосый

Режиссёр: Джон Дал

В ролях: Стив Зан, Пол Уокер, Лили Собески, Джессика Боуман, Стюарт Стоун, Бейзил Уоллес, Брайан Лекнер, Мэри Уиклифф, МакКензи Саттеруэйт, Делл Йонт, Кеннет Уайт, Луис Кортес, Майкл МакКлири, Джим Бивер, Рэйчел Сингер, Сатч Гузенда, Терри Леонард, Джеймс МакДональд, Гвенда Дикон, Роберт Уинли, Али Гейдж, Джек Мур, Хью Дэйн, Ли Степп. Джей Эрнандес, Хьюи Редвайн

Описание: Тёмная пустынная лента шоссе змеёй протянулась по безлюдному ландшафту средней Америки. Эта дорога живет своей жизнью, по своим правилам и законам. И если ты осмелился совершить по ней путешествие, то неплохо бы эти законы выучить наизусть. Герои фильма попадают в жуткую переделку, когда Фулер уговаривает младшего брата Льюиса установить в машине старый радиопередатчик. Для него это лишь клёвая антикварная диковинка, с помощью которой можно позволить себе небольшой розыгрыш. Теперь ребятам придётся своей кровью расплачиваться за безобидную по видимости проделку...



Качество: BDRip 1080p Сравнение с исходником
Формат: MKV
Видео: MPEG-4 AVC, 15 Mбит/с, 1920x816, 23,976 кадра/с
Аудио 1: русский, AC3, 448 kbps, 6 ch, 48 kHz [дублированный, Нева фильм]
Аудио 2: русский, DTS, 1509 kbps, 6 ch, 48 kHz [профессиональный многоголосый, LDV]
Аудио 3: русский, AC3, 448 kbps, 6 ch, 48 kHz [профессиональный многоголосый]
Аудио 4: русский, AC3, 192 kbps, 2 ch, 48 kHz [профессиональный многоголосый, PTP]
Аудио 5: английский, DTS, 1509 kbps, 6 ch, 48 kHz [оригинал]
Субтитры 1: русские
Субтитры 2: английские
Общее
Уникальный идентификатор : 208384419918815472233206717758654528887 (0x9CC5612219091FB58E228C5CDD623D77)
Полное имя : D:\Video\Ничего себе поездочка.2001.BDRip.1080p.mkv
Формат : Matroska
Версия формата : Version 4 / Version 2
Размер файла : 13,0 Гбайт
Продолжительность : 1 ч. 37 м.
Общий поток : 19,1 Мбит/сек
Дата кодирования : UTC 2016-03-31 07:57:11
Программа кодирования : mkvmerge v8.2.0 ('World of Adventure') 64bit
Библиотека кодирования : libebml v1.3.1 + libmatroska v1.4.2

Видео
Идентификатор : 1
Формат : AVC
Формат/Информация : Advanced Video Codec
Профиль формата : High@L4.1
Параметр CABAC формата : Да
Параметр ReFrames формата : 4 кадра
Идентификатор кодека : V_MPEG4/ISO/AVC
Продолжительность : 1 ч. 37 м.
Битрейт : 15,0 Мбит/сек
Ширина : 1920 пикселей
Высота : 816 пикселей
Соотношение сторон : 2,35:1
Режим частоты кадров : Постоянный
Частота кадров : 23,976 (24000/1001) кадра/сек
Цветовое пространство : YUV
Субдискретизация насыщенности : 4:2:0
Битовая глубина : 8 бит
Тип развёртки : Прогрессивная
Бит/(Пиксели*Кадры) : 0.399
Размер потока : 10,2 Гбайт (78%)
Библиотека кодирования : x264 core 146 r2538 121396c
Настройки программы : cabac=1 / ref=4 / deblock=1:-3:-3 / analyse=0x3:0x113 / me=umh / subme=10 / psy=1 / psy_rd=1.00:0.15 / mixed_ref=1 / me_range=32 / chroma_me=1 / trellis=2 / 8x8dct=1 / cqm=0 / deadzone=21,11 / fast_pskip=1 / chroma_qp_offset=-3 / threads=6 / lookahead_threads=1 / sliced_threads=0 / nr=0 / decimate=1 / interlaced=0 / bluray_compat=0 / constrained_intra=0 / bframes=10 / b_pyramid=2 / b_adapt=2 / b_bias=0 / direct=1 / weightb=1 / open_gop=0 / weightp=2 / keyint=230 / keyint_min=23 / scenecut=40 / intra_refresh=0 / rc_lookahead=40 / rc=crf / mbtree=0 / crf=17.2 / qcomp=0.60 / qpmin=0 / qpmax=69 / qpstep=4 / vbv_maxrate=40000 / vbv_bufsize=50000 / crf_max=0.0 / nal_hrd=none / filler=0 / ip_ratio=1.40 / pb_ratio=1.30 / aq=1:1.00
Язык : English
Default : Да
Forced : Нет

Аудио #1
Идентификатор : 2
Формат : AC-3
Формат/Информация : Audio Coding 3
Расширение режима : CM (complete main)
Параметр Endianness формата : Big
Идентификатор кодека : A_AC3
Продолжительность : 1 ч. 37 м.
Вид битрейта : Постоянный
Битрейт : 448 Кбит/сек
Каналы : 6 каналов
Расположение каналов : Front: L C R, Side: L R, LFE
Частота : 48,0 КГц
Частота кадров : 31,250 кадров/сек (1536 spf)
Метод сжатия : С потерями
Размер потока : 311 Мбайт (2%)
Заголовок : DUB (Нева фильм)
Язык : Russian
Default : Да
Forced : Нет

Аудио #2
Идентификатор : 3
Формат : DTS
Формат/Информация : Digital Theater Systems
Режим : 16
Параметр Endianness формата : Big
Идентификатор кодека : A_DTS
Продолжительность : 1 ч. 37 м.
Вид битрейта : Постоянный
Битрейт : 1509 Кбит/сек
Каналы : 6 каналов
Расположение каналов : Front: L C R, Side: L R, LFE
Частота : 48,0 КГц
Частота кадров : 93,750 кадра/сек (512 spf)
Битовая глубина : 24 бит
Метод сжатия : С потерями
Размер потока : 1,02 Гбайт (8%)
Заголовок : MVO (LDV)
Язык : Russian
Default : Нет
Forced : Нет

Аудио #3
Идентификатор : 4
Формат : AC-3
Формат/Информация : Audio Coding 3
Расширение режима : CM (complete main)
Параметр Endianness формата : Big
Идентификатор кодека : A_AC3
Продолжительность : 1 ч. 37 м.
Вид битрейта : Постоянный
Битрейт : 448 Кбит/сек
Каналы : 6 каналов
Расположение каналов : Front: L C R, Side: L R, LFE
Частота : 48,0 КГц
Частота кадров : 31,250 кадров/сек (1536 spf)
Метод сжатия : С потерями
Размер потока : 311 Мбайт (2%)
Заголовок : MVO
Язык : Russian
Default : Нет
Forced : Нет

Аудио #4
Идентификатор : 5
Формат : AC-3
Формат/Информация : Audio Coding 3
Расширение режима : CM (complete main)
Параметр Endianness формата : Big
Идентификатор кодека : A_AC3
Продолжительность : 1 ч. 37 м.
Вид битрейта : Постоянный
Битрейт : 192 Кбит/сек
Каналы : 2 канала
Расположение каналов : Front: L R
Частота : 48,0 КГц
Частота кадров : 31,250 кадров/сек (1536 spf)
Метод сжатия : С потерями
Размер потока : 133 Мбайт (1%)
Заголовок : MVO (PTP)
Язык : Russian
Default : Нет
Forced : Нет

Аудио #5
Идентификатор : 6
Формат : DTS
Формат/Информация : Digital Theater Systems
Режим : 16
Параметр Endianness формата : Big
Идентификатор кодека : A_DTS
Продолжительность : 1 ч. 37 м.
Вид битрейта : Постоянный
Битрейт : 1509 Кбит/сек
Каналы : 6 каналов
Расположение каналов : Front: L C R, Side: L R, LFE
Частота : 48,0 КГц
Частота кадров : 93,750 кадра/сек (512 spf)
Битовая глубина : 24 бит
Метод сжатия : С потерями
Размер потока : 1,02 Гбайт (8%)
Заголовок : Original
Язык : English
Default : Нет
Forced : Нет

Текст #1
Идентификатор : 7
Формат : UTF-8
Идентификатор кодека : S_TEXT/UTF8
Идентификатор кодека/Информация : UTF-8 Plain Text
Продолжительность : 1 ч. 32 м.
Битрейт : 76 бит/сек
Count of elements : 1083
Размер потока : 51,9 Кбайт (0%)
Заголовок : русский
Язык : Russian
Default : Нет
Forced : Нет

Текст #2
Идентификатор : 8
Формат : UTF-8
Идентификатор кодека : S_TEXT/UTF8
Идентификатор кодека/Информация : UTF-8 Plain Text
Продолжительность : 1 ч. 32 м.
Битрейт : 62 бит/сек
Count of elements : 1095
Размер потока : 42,4 Кбайт (0%)
Заголовок : английский
Default : Нет
Forced : Нет
pb.wtf



Скачать Ничего себе поездочка через торрент http://s017.radikal.ru/i430/1603/9f/afbf06e0b2fd.jpg Скачать фильм Ничего себе поездочка через торрент бесплантно в хорошем качестве Описание: Тёмная пустынная лента шоссе змеёй протянулась по безлюдному ландшафту средней Америки. Эта дорога живет своей жизнью, по своим ... 10 10 4
Info! Золотая раздача, скачанное не засчитывается.
Торрент: Зарегистрирован [2016-03-31 09:40] · скачан: 59 раз
Статус: √ проверено
Размер: 12.95 GB
Как cкачать? Как скачать Ничего себе поездочка через торрент | qTorrent

% Раздел Тема Автор DL S | L
Фильмы [HD 720p, 1080p] (Хороший звук DUB, MVO) [ 3.97 GB ] Ничего себе поездочка / Joy Ride [2001 BDRip 720p by msltel] DUB 3 x MVO msltel Скачать
1 | 0

28-11-2019 20:33  

Отключить всю рекламу на сайте

31-03-2016 09:52 Ничего себе поездочка Скачать торрент  

Смотрел давно, но кино четкое!!!pb.wtf



    Дорогой пользователь! Огромная просьба, поблагодарите релизера, оцените раздачу и оставьте свои комментарий, если Вы скачали Ничего себе поездочка через торрент бесплатно! Внесите свою лепту в развитие PiratBit!
    Комментировать посты могут только пользователи прошедшие не сложную регистрацию
    Показать сообщения:    

    Ничего себе поездочка через торрент
    Скачать бесплатно Ничего себе поездочка
    Ничего себе поездочка скачать торрент
    Ничего себе поездочка смотреть онлайн
    Cкачать фильм Ничего себе поездочка бесплатно
    Ничего себе поездочка скачать торрент в хорошем качестве
    Ничего себе поездочка смотреть онлайн бесплатно в хорошем качестве


    Вы не можете начинать темы
    Вы не можете отвечать на сообщения
    Вы не можете редактировать свои сообщения
    Вы не можете удалять свои сообщения
    Вы не можете голосовать в опросах
    Вы не можете прикреплять файлы к сообщениям
    Вы можете скачивать файлы