Всегда рабочее зеркало без VPN и Proxy просто перед .vidak.icu напиши любое слово или цифру, Пример http://bprd.vidak.icu

MVO

2 сезон

2 сезон

1

1 сезон

iTunes

2 сезон

13

1 сезон

Deluxe

pack

Рекомендуем

Пиратка

30

ВАЖНО

RePack

MK11

RePack

jed

RePack

fifa19

RePack

RDR2

RePack

NEED FOR SPEED™ PAYBACK

Кинопоиск HD

6 сезон

 Острые козырьки 6 сезон

Все сериалы

все сериалы на PB.wtf

RePack

FAR CRY 5

Anonymous, нам критически не хватает 5601 руб. на оплату серверов и переферии за Апрель, помоги нам пожалуйста, вся надежда только на тебя. В благодарность мы отключим тебе всю рекламу на сайте!

×
  
Magnet ссылка

Омерзительная восьмерка / The Hateful Eight (Квентин Тарантино / Quentin Tarantino) [2015, триллер, драма, криминал, BDRip 720p от potroks] DUB, AVO pb.wtf

Омерзительная восьмерка через торрент pb.wtf

Размер: 8.41 GB | Добавлен: 6 лет 1 мес. назад | Торрент скачан:981 раз
Смотреть онлайн Омерзительная восьмерка | Скачать    Ребята, помогите собрать деньги на оплату серверов!!!

31-03-2016 11:35 Омерзительная восьмерка Скачать торрент  

Омерзительная восьмерка / The Hateful Eight
«Без хорошей причины сюда не лезут»
Год выпуска: 2015
Страна: США / The Weinstein Company LLC
Жанр: триллер, драма, криминал, детектив, вестерн
Продолжительность: 02:47:55
Перевод: Дубляж [iTunes], Авторский (одноголосый) [Д.Есарев, А.Матвеев]
Субтитры: русские (форс.), русские (полные (x2)), английские (Full + SDH + SDH-Colored)
Навигация по главам: есть
Режиссер: Квентин Тарантино / Quentin Tarantino
В ролях:

Курт Рассел (John Ruth), Сэмюэл Л. Джексон (Major Marquis Warren), Тим Рот (Oswaldo Mobray), Майкл Мэдсен (Joe Gage), Дженнифер Джейсон Ли (Daisy Domergue), Уолтон Гоггинс (Sheriff Chris Mannix), Демиан Бишир (Bob), Брюс Дерн (General Sandy Smithers), Джеймс Паркс (O.B Jackson), Дэна Гурье (Minnie Mink), Зои Белл (Six-Horse Judy), Ли Хорсли (Ed)
Описание: США после Гражданской войны. Легендарный охотник за головами Джон Рут по кличке Вешатель конвоирует заключенную. По пути к ним прибиваются еще несколько путешественников. Снежная буря вынуждает компанию искать укрытие в лавке на отшибе, где уже расположилось весьма пестрое общество: генерал конфедератов, мексиканец, ковбой... И один из них - не тот, за кого себя выдает.

Качество: BDRip 720p
Формат: MKV
Видео кодек: AVC
Аудио кодек: AC3
Видео: 1280x464 (2.759), 4866 kbps, 23,976 fps, 0,342 bit/pixel
Аудио №1: AC3 / 5.1 / 48 kHz / 384 kbps / 16 bit | DUB - iTunes
Аудио №2: AC3 / 5.1 / 48 kHz / 640 kbps / 16 bit | Д.Есарев
Аудио №3: AC3 / 5.1 / 48 kHz / 640 kbps / 16 bit | А.Матвеев
Аудио №4: AC3 / 5.1 / 48 kHz / 640 kbps / 16 bit | ENG

Матвеев и Есарев отдельно

Код:

MediaInfoLib - v0.7.72
General
Unique ID                           : 204801389485083679585777731704035290112 (0x9A135017FEDEB81CBA35FBA436792C00)
Complete name                       : Omerzitelnaya.Vosmerka.2015.3xRus.Eng.BDRip.720p.by_potroks.mkv
Format                              : Matroska
Format version                      : Version 4 / Version 2
File size                           : 8.41 GiB
Duration                            : 2h 47mn
Overall bit rate                    : 7 166 Kbps
Movie name                          : The Hateful Eight (2015)
Encoded date                        : UTC 2016-03-31 10:37:07
Writing application                 : mkvmerge v5.9.0 ('On The Loose') built on Dec 15 2012 16:39:58
Writing library                     : libebml v1.3.0 + libmatroska v1.4.0

Video
ID                                  : 1
Format                              : AVC
Format/Info                         : Advanced Video Codec
Format profile                      : High@L4.1
Format settings, CABAC              : Yes
Format settings, ReFrames           : 9 frames
Codec ID                            : V_MPEG4/ISO/AVC
Duration                            : 2h 47mn
Bit rate                            : 4 866 Kbps
Width                               : 1 280 pixels
Height                              : 464 pixels
Display aspect ratio                : 2.759
Frame rate mode                     : Constant
Frame rate                          : 23.976 fps
Color space                         : YUV
Chroma subsampling                  : 4:2:0
Bit depth                           : 8 bits
Scan type                           : Progressive
Bits/(Pixel*Frame)                  : 0.342
Stream size                         : 5.54 GiB (66%)
Title                               : potroks
Writing library                     : x264 core 148 r2665M a01e339
Encoding settings                   : cabac=1 / ref=9 / deblock=1:-3:-3 / analyse=0x3:0x133 / me=umh / subme=11 / psy=1 / psy_rd=1.02:0.10 / mixed_ref=1 / me_range=48 / chroma_me=1 / trellis=2 / 8x8dct=1 / cqm=0 / deadzone=21,11 / fast_pskip=0 / chroma_qp_offset=-3 / threads=9 / lookahead_threads=2 / sliced_threads=0 / nr=0 / decimate=1 / interlaced=0 / bluray_compat=0 / constrained_intra=0 / bframes=10 / b_pyramid=2 / b_adapt=2 / b_bias=0 / direct=3 / weightb=1 / open_gop=0 / weightp=2 / keyint=240 / keyint_min=23 / scenecut=40 / intra_refresh=0 / rc=2pass / mbtree=0 / bitrate=4866 / ratetol=1.0 / qcomp=0.70 / qpmin=0 / qpmax=69 / qpstep=4 / cplxblur=20.0 / qblur=0.5 / ip_ratio=1.40 / pb_ratio=1.30 / aq=1:0.80
Language                            : English
Default                             : Yes
Forced                              : No

Audio #1
ID                                  : 2
Format                              : AC-3
Format/Info                         : Audio Coding 3
Mode extension                      : CM (complete main)
Format settings, Endianness         : Big
Codec ID                            : A_AC3
Duration                            : 2h 47mn
Bit rate mode                       : Constant
Bit rate                            : 384 Kbps
Channel(s)                          : 6 channels
Channel positions                   : Front: L C R, Side: L R, LFE
Sampling rate                       : 48.0 KHz
Bit depth                           : 16 bits
Compression mode                    : Lossy
Stream size                         : 461 MiB (5%)
Title                               : Dub | DD 5.1 @ 384 kbps - iTunes
Language                            : Russian
Default                             : Yes
Forced                              : No

Audio #2
ID                                  : 3
Format                              : AC-3
Format/Info                         : Audio Coding 3
Mode extension                      : CM (complete main)
Format settings, Endianness         : Big
Codec ID                            : A_AC3
Duration                            : 2h 47mn
Bit rate mode                       : Constant
Bit rate                            : 640 Kbps
Channel(s)                          : 6 channels
Channel positions                   : Front: L C R, Side: L R, LFE
Sampling rate                       : 48.0 KHz
Bit depth                           : 16 bits
Compression mode                    : Lossy
Stream size                         : 769 MiB (9%)
Title                               : AVO | DD 5.1 @ 640 kbps - D.Yesarev
Language                            : Russian
Default                             : No
Forced                              : No

Audio #3
ID                                  : 4
Format                              : AC-3
Format/Info                         : Audio Coding 3
Mode extension                      : CM (complete main)
Format settings, Endianness         : Big
Codec ID                            : A_AC3
Duration                            : 2h 47mn
Bit rate mode                       : Constant
Bit rate                            : 640 Kbps
Channel(s)                          : 6 channels
Channel positions                   : Front: L C R, Side: L R, LFE
Sampling rate                       : 48.0 KHz
Bit depth                           : 16 bits
Compression mode                    : Lossy
Stream size                         : 769 MiB (9%)
Title                               : AVO | DD 5.1 @ 640 kbps - A.Matveev
Language                            : Russian
Default                             : No
Forced                              : No

Audio #4
ID                                  : 5
Format                              : AC-3
Format/Info                         : Audio Coding 3
Mode extension                      : CM (complete main)
Format settings, Endianness         : Big
Codec ID                            : A_AC3
Duration                            : 2h 47mn
Bit rate mode                       : Constant
Bit rate                            : 640 Kbps
Channel(s)                          : 6 channels
Channel positions                   : Front: L C R, Side: L R, LFE
Sampling rate                       : 48.0 KHz
Bit depth                           : 16 bits
Compression mode                    : Lossy
Stream size                         : 769 MiB (9%)
Title                               : Original | DD 5.1 @ 640 kbps
Language                            : English
Default                             : No
Forced                              : No

Text #1
ID                                  : 6
Format                              : UTF-8
Codec ID                            : S_TEXT/UTF8
Codec ID/Info                       : UTF-8 Plain Text
Title                               : Forced [potroks]
Language                            : Russian
Default                             : Yes
Forced                              : No

Text #2
ID                                  : 7
Format                              : UTF-8
Codec ID                            : S_TEXT/UTF8
Codec ID/Info                       : UTF-8 Plain Text
Title                               : Translation: Ruslan Akhmetov
Language                            : Russian
Default                             : No
Forced                              : No

Text #3
ID                                  : 8
Format                              : UTF-8
Codec ID                            : S_TEXT/UTF8
Codec ID/Info                       : UTF-8 Plain Text
Title                               : A.Matveev
Language                            : Russian
Default                             : No
Forced                              : No

Text #4
ID                                  : 9
Format                              : UTF-8
Codec ID                            : S_TEXT/UTF8
Codec ID/Info                       : UTF-8 Plain Text
Title                               : Full
Language                            : English
Default                             : No
Forced                              : No

Text #5
ID                                  : 10
Format                              : UTF-8
Codec ID                            : S_TEXT/UTF8
Codec ID/Info                       : UTF-8 Plain Text
Title                               : SDH
Language                            : English
Default                             : No
Forced                              : No

Text #6
ID                                  : 11
Format                              : UTF-8
Codec ID                            : S_TEXT/UTF8
Codec ID/Info                       : UTF-8 Plain Text
Title                               : SDH-Coored
Language                            : English
Default                             : No
Forced                              : No

Menu
00:00:00.000                        : :Chapter 1
00:04:33.523                        : :Chapter 2
00:11:36.111                        : :Chapter 3
00:22:01.361                        : :Chapter 4
00:35:02.431                        : :Chapter 5
00:43:31.900                        : :Chapter 6
00:52:12.211                        : :Chapter 7
00:59:04.498                        : :Chapter 8
01:08:30.314                        : :Chapter 9
01:16:10.856                        : :Chapter 10
01:25:18.445                        : :Chapter 11
01:35:06.492                        : :Chapter 12
01:42:20.175                        : :Chapter 13
01:50:33.335                        : :Chapter 14
01:59:32.497                        : :Chapter 15
02:06:43.052                        : :Chapter 16
02:13:26.622                        : :Chapter 17
02:19:59.724                        : :Chapter 18
02:24:17.022                        : :Chapter 19
02:34:08.111                        : :Chapter 20
02:39:38.025                        : :Chapter 21
02:43:22.751                        : :Chapter 22

pb.wtf



Скачать Омерзительная восьмерка через торрент http://i76.fastpic.ru/big/2016/0322/5b/de4cd758ef40764195d414746aecd45b.png Скачать, смотреть онлайн Омерзительная восьмерка бесплантно в хорошем качестве Описание: США после Гражданской войны. Легендарный охотник за головами Джон Рут по кличке Вешатель конвоирует заключенную. По пути к ним ... 9.5 10 19
Info! Золотая раздача, скачанное не засчитывается.
Торрент: Зарегистрирован [2016-03-31 11:35] · скачан: 981 раз
Статус: √ проверено
Размер: 8.41 GB
Как cкачать? Как скачать Омерзительная восьмерка через торрент | UTorrent

% Раздел Тема Автор DL S | L
Фильмы (Blu-ray, BD-Remux, HDDVD) [ 65.73 GB ] Омерзительная восьмерка / The Hateful Eight [2015 BDRemux 1080p] DUB + 6xAVO sheker187 Скачать
1 | 0
Фильмы [HD 720p, 1080p] (Хороший звук DUB, MVO) [ 10.72 GB ] Омерзительная восьмёрка / The Hateful Eight [2015 BDRip-HEVC 1080p ] 4xAVO+DUB [] bober100 Скачать
1 | 0
Фильмы [HD 720p, 1080p] (Хороший звук DUB, MVO) [ 15.52 GB ] Омерзительная восьмерка / The Hateful Eight [2015 BDRip 720p] 2xDUB+MVO+3xAVO bober100 Скачать
1 | 0
Фильмы [HD 720p, 1080p] (Хороший звук DUB, MVO) [ 9.46 GB ] Омерзительная восьмерка / The Hateful Eight [2015 BDRip 720p] DUB AVO potroks Скачать
1 | 0

28-11-2019 20:33  

Отключить всю рекламу на сайте

04-04-2016 04:07 Омерзительная восьмерка Скачать торрент  

Фильм удался. В нем почти все отлично. 9/10pb.wtf



17-05-2016 22:11 Омерзительная восьмерка Скачать торрент  

фильм, огонь)
Мне понравился)pb.wtf



    Дорогой пользователь! Огромная просьба, поблагодарите релизера, оцените раздачу и оставьте свои комментарий, если Вы скачали Омерзительная восьмерка через торрент бесплатно!
    Комментировать посты могут только пользователи прошедшие не сложную регистрацию
    Показать сообщения:    

    Омерзительная восьмерка через торрент
    Скачать бесплатно Омерзительная восьмерка
    Омерзительная восьмерка скачать торрент
    Омерзительная восьмерка смотреть онлайн
    Cкачать фильм Омерзительная восьмерка бесплатно
    Омерзительная восьмерка скачать торрент в хорошем качестве
    Омерзительная восьмерка смотреть онлайн бесплатно в хорошем качестве


    Вы не можете начинать темы
    Вы не можете отвечать на сообщения
    Вы не можете редактировать свои сообщения
    Вы не можете удалять свои сообщения
    Вы не можете голосовать в опросах
    Вы не можете прикреплять файлы к сообщениям
    Вы можете скачивать файлы