Ссылка на приватное зеркало нашего сайта всего за 1$. Внимание количество ограничено!!!

2 сезон

iTunes

1 сезон

1

iTunes

iTunes

iTunes

1 сезон

RePack

30

ИГРА 18+

pack

ВАЖНО

!!Акция!!

Alien_RageХит недели

RePack

MK11
pack

Забери бонус

RePack

jed

!!Акция!!

Alien_Rage

RePack

fifa19

RePack

Assassins Creed: Odyssey

RePack

NEED FOR SPEED™ PAYBACK

4 сезон

9 сезон

Бесстыжие 9 сезон

Все сериалы

все сериалы на PB.wtf

RePack

FAR CRY 5
  

В сердце моря / In the Heart of the Sea (Рон Ховард / Ron Howard) [2015, боевик, триллер, драма, BDRip 720p от potroks] DUB Лицензия pb.wtf

В сердце моря через торрент pb.wtf

Размер: 6.96 GB | Добавлен: 4 года 6 мес. назад | Торрент скачан:229 раз
Скачать  

31-03-2016 14:45 В сердце моря Скачать торрент  

В сердце моря / In the Heart of the Sea
«Based on the incredible true story that inspired Moby-Dick»
Год выпуска: 2015
Страна: США, Австралия, Испания, Великобритания, Канада / Warner Bros. Pictures...
Жанр: боевик, триллер, драма, приключения, биография, история
Продолжительность: 02:01:42
Перевод: Дубляж [BD CEE], Авторский (одноголосый)
Субтитры: русские (форс.), русские (полные (х2)), украинские (форс.), английские (Full + SDH + SDH-Colored)
Навигация по главам: есть

Режиссер: Рон Ховард / Ron Howard
В ролях:

Крис Хемсворт (Owen Chase), Бенджамин Уокер (George Pollard), Киллиан Мёрфи (Matthew Joy), Брендан Глисон (Tom Nickerson), Бен Уишоу (Herman Melville), Мишель Фэйрли (Mrs. Nickerson), Том Холланд (Thomas Nickerson), Пол Андерсон (Caleb Chappel), Фрэнк Диллэйн (Henry Coffin), Джозеф Моул (Benjamin Lawrence), Эдвард Эшли (Barzillai Ray), Сэм Кили (Ramsdell)
Описание: В 1819 году американский корабль «Эссекс» с командой из двух десятков человек на борту отправился из порта в штате Массачусетс на китобойный промысел. Осенью 1820-го успешная на протяжении полутора лет охота была прервана атакой гигантского кашалота на судно, в результате чего морякам пришлось пересесть в шлюпки. В течение трех с лишним месяцев они боролись за выживание посреди океана...

Качество: BDRip 720p
Формат: MKV
Видео кодек: AVC
Аудио кодек: AC3
Видео: 1280x720 (16:9), 5636 kbps, 23,976 fps, 0.255 bit/pixel
Аудио#1: AC3 / 5.1 / 48 kHz / 448 kbps / 16 bit | DUB - Blu-ray CEE
Аудио#2: AC3 / 5.1 / 48 kHz / 640 kbps / 16 bit | Д.Есарев
Аудио#3: AC3 / 5.1 / 48 kHz / 640 kbps / 16 bit | Ю.Живов
Аудио#4: AC3 / 2.0 / 48 kHz / 192 kbps / 16 bit | UKR - iTunes
Аудио#5: AC3 / 5.1 / 48 kHz / 640 kbps / 16 bit | ENG

Код:

General
Unique ID                           : 228974492044364088462479317905555772562 (0xAC42E21110F372E399210A2CE09AD492)
Complete name                       : V.Serdtce.Morya.2015.3xRus.Ukr.Eng.BDRip.x264.HELLYWOOD.mkv
Format                              : Matroska
Format version                      : Version 4 / Version 2
File size                           : 6.96 GiB
Duration                            : 2h 1mn
Overall bit rate                    : 8 191 Kbps
Movie name                          : In the heart of the sea (2015)
Encoded date                        : UTC 2016-03-31 11:29:57
Writing application                 : mkvmerge v5.9.0 ('On The Loose') built on Dec 15 2012 16:39:58
Writing library                     : libebml v1.3.0 + libmatroska v1.4.0

Video
ID                                  : 1
Format                              : AVC
Format/Info                         : Advanced Video Codec
Format profile                      : High@L4.1
Format settings, CABAC              : Yes
Format settings, ReFrames           : 9 frames
Codec ID                            : V_MPEG4/ISO/AVC
Duration                            : 2h 1mn
Bit rate                            : 5 636 Kbps
Width                               : 1 280 pixels
Height                              : 720 pixels
Display aspect ratio                : 16:9
Frame rate mode                     : Constant
Frame rate                          : 23.976 fps
Color space                         : YUV
Chroma subsampling                  : 4:2:0
Bit depth                           : 8 bits
Scan type                           : Progressive
Bits/(Pixel*Frame)                  : 0.255
Stream size                         : 4.65 GiB (67%)
Title                               : potroks
Writing library                     : x264 core 148 r2665M a01e339
Encoding settings                   : cabac=1 / ref=9 / deblock=1:-3:-3 / analyse=0x3:0x133 / me=umh / subme=11 / psy=1 / psy_rd=1.00:0.05 / mixed_ref=1 / me_range=48 / chroma_me=1 / trellis=2 / 8x8dct=1 / cqm=0 / deadzone=21,11 / fast_pskip=0 / chroma_qp_offset=-3 / threads=9 / lookahead_threads=2 / sliced_threads=0 / nr=0 / decimate=1 / interlaced=0 / bluray_compat=0 / constrained_intra=0 / bframes=10 / b_pyramid=2 / b_adapt=2 / b_bias=0 / direct=3 / weightb=1 / open_gop=0 / weightp=2 / keyint=240 / keyint_min=23 / scenecut=40 / intra_refresh=0 / rc=2pass / mbtree=0 / bitrate=5636 / ratetol=1.0 / qcomp=0.70 / qpmin=0 / qpmax=69 / qpstep=4 / cplxblur=20.0 / qblur=0.5 / ip_ratio=1.40 / pb_ratio=1.30 / aq=1:0.75
Language                            : English
Default                             : Yes
Forced                              : No
Color primaries                     : BT.709
Transfer characteristics            : BT.709
Matrix coefficients                 : BT.709
Color range                         : Limited

Audio #1
ID                                  : 2
Format                              : AC-3
Format/Info                         : Audio Coding 3
Mode extension                      : CM (complete main)
Format settings, Endianness         : Big
Codec ID                            : A_AC3
Duration                            : 2h 1mn
Bit rate mode                       : Constant
Bit rate                            : 448 Kbps
Channel(s)                          : 6 channels
Channel positions                   : Front: L C R, Side: L R, LFE
Sampling rate                       : 48.0 KHz
Bit depth                           : 16 bits
Compression mode                    : Lossy
Stream size                         : 390 MiB (5%)
Title                               : Dub | DD 5.1 @ 448 kbps - Blu-ray CEE
Language                            : Russian
Default                             : Yes
Forced                              : No

Audio #2
ID                                  : 3
Format                              : AC-3
Format/Info                         : Audio Coding 3
Mode extension                      : CM (complete main)
Format settings, Endianness         : Big
Codec ID                            : A_AC3
Duration                            : 2h 1mn
Bit rate mode                       : Constant
Bit rate                            : 640 Kbps
Channel(s)                          : 6 channels
Channel positions                   : Front: L C R, Side: L R, LFE
Sampling rate                       : 48.0 KHz
Bit depth                           : 16 bits
Compression mode                    : Lossy
Stream size                         : 557 MiB (8%)
Title                               : AVO | DD 5.1 @ 640 kbps - D.Yesarev
Language                            : Russian
Default                             : No
Forced                              : No

Audio #3
ID                                  : 4
Format                              : AC-3
Format/Info                         : Audio Coding 3
Mode extension                      : CM (complete main)
Format settings, Endianness         : Big
Codec ID                            : A_AC3
Duration                            : 2h 1mn
Bit rate mode                       : Constant
Bit rate                            : 640 Kbps
Channel(s)                          : 6 channels
Channel positions                   : Front: L C R, Side: L R, LFE
Sampling rate                       : 48.0 KHz
Bit depth                           : 16 bits
Compression mode                    : Lossy
Stream size                         : 557 MiB (8%)
Title                               : AVO | DD 5.1 @ 640 kbps - Yu.Zhyvov
Language                            : Russian
Default                             : No
Forced                              : No

Audio #4
ID                                  : 5
Format                              : AC-3
Format/Info                         : Audio Coding 3
Mode extension                      : CM (complete main)
Format settings, Endianness         : Big
Codec ID                            : A_AC3
Duration                            : 2h 1mn
Bit rate mode                       : Constant
Bit rate                            : 192 Kbps
Channel(s)                          : 2 channels
Channel positions                   : Front: L R
Sampling rate                       : 48.0 KHz
Bit depth                           : 16 bits
Compression mode                    : Lossy
Stream size                         : 167 MiB (2%)
Title                               : Dub | DD 2.0 @ 192 kbps - iTunes
Language                            : Ukrainian
Default                             : No
Forced                              : No

Audio #5
ID                                  : 6
Format                              : AC-3
Format/Info                         : Audio Coding 3
Mode extension                      : CM (complete main)
Format settings, Endianness         : Big
Codec ID                            : A_AC3
Duration                            : 2h 1mn
Bit rate mode                       : Constant
Bit rate                            : 640 Kbps
Channel(s)                          : 6 channels
Channel positions                   : Front: L C R, Side: L R, LFE
Sampling rate                       : 48.0 KHz
Bit depth                           : 16 bits
Compression mode                    : Lossy
Stream size                         : 557 MiB (8%)
Title                               : Original | DD 5.1 @ 640 kbps
Language                            : English
Default                             : No
Forced                              : No

Text #1
ID                                  : 7
Format                              : UTF-8
Codec ID                            : S_TEXT/UTF8
Codec ID/Info                       : UTF-8 Plain Text
Title                               : Forced
Language                            : Russian
Default                             : Yes
Forced                              : No

Text #2
ID                                  : 8
Format                              : UTF-8
Codec ID                            : S_TEXT/UTF8
Codec ID/Info                       : UTF-8 Plain Text
Title                               : iTunes
Language                            : Russian
Default                             : No
Forced                              : No

Text #3
ID                                  : 9
Format                              : UTF-8
Codec ID                            : S_TEXT/UTF8
Codec ID/Info                       : UTF-8 Plain Text
Title                               : Jet
Language                            : Russian
Default                             : No
Forced                              : No

Text #4
ID                                  : 10
Format                              : UTF-8
Codec ID                            : S_TEXT/UTF8
Codec ID/Info                       : UTF-8 Plain Text
Title                               : Forced
Language                            : Ukrainian
Default                             : No
Forced                              : No

Text #5
ID                                  : 11
Format                              : UTF-8
Codec ID                            : S_TEXT/UTF8
Codec ID/Info                       : UTF-8 Plain Text
Title                               : Full
Language                            : English
Default                             : No
Forced                              : No

Text #6
ID                                  : 12
Format                              : UTF-8
Codec ID                            : S_TEXT/UTF8
Codec ID/Info                       : UTF-8 Plain Text
Title                               : SDH
Language                            : English
Default                             : No
Forced                              : No

Text #7
ID                                  : 13
Format                              : UTF-8
Codec ID                            : S_TEXT/UTF8
Codec ID/Info                       : UTF-8 Plain Text
Title                               : SDH-Colored
Language                            : English
Default                             : No
Forced                              : No

Menu
00:00:00.000                        : en:(01)00:00:00:000
00:12:07.518                        : en:(02)00:12:07:518
00:21:19.736                        : en:(03)00:21:19:736
00:33:31.968                        : en:(04)00:33:31:968
00:42:37.012                        : en:(05)00:42:37:012
00:51:32.714                        : en:(06)00:51:32:714
01:06:45.835                        : en:(07)01:06:45:835
01:13:14.014                        : en:(08)01:13:14:014
01:23:23.289                        : en:(09)01:23:23:289
01:33:47.872                        : en:(10)01:33:47:872
01:43:22.029                        : en:(11)01:43:22:029
01:53:00.774                        : en:(12)01:53:00:774

pb.wtf



Скачать В сердце моря через торрент http://i75.fastpic.ru/big/2016/0331/8e/cc1a1b5525aa6213ac74b52a4e4f238e.png Скачать фильм В сердце моря через торрент бесплантно в хорошем качестве Описание: В 1819 году американский корабль «Эссекс» с командой из двух десятков человек на борту отправился из порта в штате Массачусетс ... 9.8 10 4
Info! Золотая раздача, скачанное не засчитывается.
Торрент: Зарегистрирован [2016-03-31 14:45] · скачан: 229 раз
Статус: √ проверено
Размер: 6.96 GB
Как cкачать? Как скачать В сердце моря через торрент | qTorrent

% Раздел Тема Автор DL S | L
Ultra HD (UHD: 2K, 4K, 8K) — видео сверхвысокой чёткости [ 58.43 GB ] В сердце моря / In the Heart of the Sea [2015 биография история UHD BDRemux 2160p] DUB [] + 3xAVO sheker187 Скачать
1 | 0
3D Фильмы [ 16.43 GB ] В сердце моря 3Д / In the Heart of the Sea 3D [2015 BDRip 1080p] [Half OverUnder / Вертикальная анаморфная стереопара] DUB [] bober100 Скачать
1 | 0
Ultra HD (UHD: 2K, 4K, 8K) — видео сверхвысокой чёткости [ 53.13 GB ] В сердце моря / In the Heart of the Sea [2015 UHD BDRemux 2160p] DUB + 2xAVO [] sheker187 Скачать
1 | 0
Фильмы 2015 [DVDrip, WEB-DLRip, HDrip] [ 1.45 GB ] В сердце моря / In the Heart of the Sea [2015 BDRip-AVC] DUB potroks Скачать
1 | 0
Фильмы 2015 [DVDrip, WEB-DLRip, HDrip] [ 2.91 GB ] В сердце моря / In the Heart of the Sea [2015 BDRip-AVC] DUB potroks Скачать
1 | 0
Фильмы 2015 [DVDrip, WEB-DLRip, HDrip] [ 1.46 GB ] В сердце моря / In the Heart of the Sea [2015 биография история BDRip] DUB Twi7ter Скачать
1 | 0
Фильмы 2015 [DVDrip, WEB-DLRip, HDrip] [ 1.46 GB ] В сердце моря / In the Heart of the Sea [2015 биография история BDRip] Dub Twi7ter Скачать
1 | 0

28-11-2019 20:33  

Отключить всю рекламу на сайте

    Дорогой пользователь! Огромная просьба, поблагодарите релизера, оцените раздачу и оставьте свои комментарий, если Вы скачали В сердце моря через торрент бесплатно! Внесите свою лепту в развитие PiratBit!
    Комментировать посты могут только пользователи прошедшие не сложную регистрацию
    Показать сообщения:    

    В сердце моря через торрент
    Скачать бесплатно В сердце моря
    В сердце моря скачать торрент
    В сердце моря смотреть онлайн
    Cкачать фильм В сердце моря бесплатно
    В сердце моря скачать торрент в хорошем качестве
    В сердце моря смотреть онлайн бесплатно в хорошем качестве


    Вы не можете начинать темы
    Вы не можете отвечать на сообщения
    Вы не можете редактировать свои сообщения
    Вы не можете удалять свои сообщения
    Вы не можете голосовать в опросах
    Вы не можете прикреплять файлы к сообщениям
    Вы можете скачивать файлы