Достать ножи: Стеклянная луковица

MVO

Добыча

Дубляж

Уэнсдэй

1 сезон

Тор

Дубляж

13 клиническая

1 сезон

Жестокая ночь

MVO

Одни из нас

1 сезон

Deluxe

pack

Рекомендуем

30

Пиратка

ВАЖНО

ВАЖНО

Ghostwire

Пиратка

jed

RePack

nioh2

RePack

RDR2

RePack

NEED FOR SPEED™ PAYBACK

RePack

скачать торрент

Кинопоиск HD

Острые козырьки 6 сезон

6 сезон

FAR CRY 6

RePack

скачать торрент

Лицензия

скачать торрент

MVO

1

1 сезон

скачать торрент

1 сезон

скачать торрент

Лицензия

  

Римский-Корсаков (Геннадий Казанский, Григорий Рошаль) [1953, СССР, драма, биография, музыка, DVDRip]

Римский-Корсаков через торрент pb.wtf

Размер: 1.46 GB | Добавлен: 6 лет 10 мес. назад | Торрент скачан:15 раз
Смотреть онлайн | Скачать | Поддержите нас   

01-04-2016 08:47 Римский-Корсаков Скачать торрент  

Римский-Корсаков
Страна: СССР
Производство: Ленфильм

Жанр: драма, биография, музыка
Год выпуска: 1953
Продолжительность: 01:47:02

Перевод: Не требуется
Cубтитры: нет
Оригинальная аудиодорожка: русский

Режиссер: Геннадий Казанский, Григорий Рошаль

В ролях:
Григорий Белов, Николай Черкасов, Александр Борисов, Лилия Гриценко, Виктор Хохряков, Анатолий Кузнецов (II), Лидия Сухаревская, Александр Огнивцев, Борис Коковкин, Сергей Курилов, Лидия Драновская, Анатолий Вербицкий, Татьяна Ленникова, Агаси Бабаян, Бруно Фрейндлих, Владимир Балашов, Фёдор Никитин...
Полный список актёров

Описание:
Костюмный биографический фильм о Николае Андреевиче Римском-Корсакове (1844-1908), русском композиторе, дирижере и музыкально-общественном деятеле, одном из организаторов и вдохновителей "Могучей кучки".

Источник: DVD5 R5
Качество видео: DVDRip
Формат видео: AVI

Видео: 688x512 (4:3), 25 fps, XviD ~ 1751 kbps avg, 0.199 bit/pixel
Аудио: 48 kHz, Dolby Digital AC3 2.0, 192 kbps

Раздача от:
Общее
Полное имя : Rimskiy-Korsakov.1953.DVDRip_[New-team]_by_AVP_Studio.avi
Формат : AVI
Формат/Информация : Audio Video Interleave
Размер файла : 1,46 Гбайт
Продолжительность : 1 ч. 47 м.
Общий поток : 1952 Кбит/сек
Программа кодирования : VirtualDubMod 1.5.10.3 | www.virtualdub-fr.org || (build 2550/release)
Библиотека кодирования : VirtualDubMod build 2550/release

Видео
Идентификатор : 0
Формат : MPEG-4 Visual
Профиль формата : Advanced [email protected]
Параметр BVOP формата : 1
Параметр QPel формата : Нет
Параметр GMC формата : Без точки перехода
Параметр матрицы формата : Выборочная
Идентификатор кодека : XVID
Идентификатор кодека/Подсказка : XviD
Продолжительность : 1 ч. 47 м.
Битрейт : 1751 Кбит/сек
Ширина : 688 пикселей
Высота : 512 пикселей
Соотношение сторон : 4:3
Частота кадров : 25,000 кадров/сек
Цветовое пространство : YUV
Субдискретизация насыщенности : 4:2:0
Битовая глубина : 8 бит
Тип развёртки : Прогрессивная
Метод сжатия : С потерями
Бит/(Пиксели*Кадры) : 0.199
Размер потока : 1,31 Гбайт (90%)
Библиотека кодирования : XviD 1.2.1 (UTC 2008-12-04)

Аудио
Идентификатор : 1
Формат : AC-3
Формат/Информация : Audio Coding 3
Расширение режима : CM (complete main)
Параметр Endianness формата : Big
Идентификатор кодека : 2000
Продолжительность : 1 ч. 47 м.
Вид битрейта : Постоянный
Битрейт : 192 Кбит/сек
Каналы : 2 канала
Расположение каналов : Front: L R
Частота : 48,0 КГц
Частота кадров : 31,250 кадров/сек (1536 spf)
Метод сжатия : С потерями
Размер потока : 147 Мбайт (10%)
Выравнивание : Разделение по промежуткам
Продолжительность промежутка : 40 мс. (1,00 видеокадр)
Время предзагрузки промежутка : 500 мс



Скачать Римский-Корсаков через торрент http://s014.radikal.ru/i328/1604/ad/053047e5d8a6.png Скачать, смотреть онлайн Римский-Корсаков бесплантно в хорошем качестве Описание:Костюмный биографический фильм о Николае Андреевиче Римском-Корсакове (1844-1908), русском композиторе, дирижере и ... 10 10 1
Info! Золотая раздача, скачанное не засчитывается.
Торрент: Зарегистрирован [2016-04-01 08:47] · скачан: 15 раз
Статус: √ проверено
Размер: 1.46 GB
Как cкачать? Как скачать Римский-Корсаков через торрент | UTorrent

% Раздел Тема Автор DL S | L
Кино СССР [ 1.46 GB ] Римский-Корсаков | | DVDRip-AVC AVP Studio Скачать
1 | 0
Кино СССР [ 746 MB ] Римский-Корсаков | | DVDRip AVP Studio Скачать
1 | 0

28-11-2019 20:33  


Отключить вcю реклaмy на сайте, в т.ч. и в плеере онлайн просмотра!

    Дорогой пользователь! Огромная просьба, поблагодарите релизера, оцените раздачу и оставьте свои комментарий, если Вы скачали Римский-Корсаков через торрент бесплатно!!
    Комментировать посты могут только пользователи прошедшие не сложную регистрацию
    Показать сообщения:    


    Римский-Корсаков через торрент
    Скачать бесплатно Римский-Корсаков
    Римский-Корсаков скачать торрент
    Римский-Корсаков смотреть онлайн
    Cкачать фильм Римский-Корсаков бесплатно
    Римский-Корсаков скачать торрент в хорошем качестве
    Римский-Корсаков смотреть онлайн бесплатно в хорошем качестве
    Вы не можете начинать темы
    Вы не можете отвечать на сообщения
    Вы не можете редактировать свои сообщения
    Вы не можете удалять свои сообщения
    Вы не можете голосовать в опросах
    Вы не можете прикреплять файлы к сообщениям
    Вы можете скачивать файлы
    Римский-Корсаков [1953, СССР, драма, биография, музыка, DVDRip] смотреть онлайн, скачать торрент picoco.icu