Ссылка на приватное зеркало нашего сайта всего за 1$. Внимание количество ограничено!!!

2 сезон

iTunes

1 сезон

1

2 сезон

2 сезон

iTunes

1 сезон

RePack

30

Новинка

ВАЖНО

ИГРА 18+

pack

RePack

MK11
pack

Забери бонус

RePack

jed

!!Акция!!

Alien_Rage

RePack

fifa19

RePack

Assassins Creed: Odyssey

RePack

NEED FOR SPEED™ PAYBACK

4 сезон

9 сезон

Бесстыжие 9 сезон

Все сериалы

все сериалы на PB.wtf

RePack

FAR CRY 5
  

Банши / Banshee / Сезон: 4 / Серии 1-2 из 8 (Грег Яйтанс, Оле Кристиан Мадсен, С.Дж. Кларксон) [2016 г., боевик, триллер, драма, криминал, детектив, HDTVRip-AVC] MVO (Amedia) +Original pb.wtf

Банши через торрент pb.wtf

Размер: 1.72 GB | Добавлен: 4 года 7 мес. назад | Торрент скачан:126 раз
Скачать  

02-04-2016 21:19 Банши Скачать торрент  


Банши / Banshee

«Small Town. Big Secrets»

Год выпуска: 2016
Страна: США
Жанр: боевик, триллер, драма, криминал, детектив
Продолжительность: 00:57:35
Перевод: Профессиональный (многоголосый закадровый)

Режиссер: Оле Кристиан Мадсен, Грег Яйтанс, Лони Перистер, С.Дж. Кларксон, Мигель Сапочник, Бабак Наджафи, Магнус Мартенс, Эверардо Валерио Гоут / Ole Christian Madsen, Greg Yaitanes, Loni Peristere, S.J. Clarkson, Miguel Sapochnik, Babak Najafi, Magnus Martens, Everardo Gout
Сценарий: Дэвид Шиклер, Джонатан Троппер, Адам Таргум, Ивэн Дунский, Даг Джанг, Джон Романо, Дженнифер Эймс, Джастин Бритт-Гибсон / David Schickler, Jonathan Tropper, Adam Targum, Evan Dunsky, Doug Jung, John Romano, Jennifer Ames, Justin Britt-Gibson
Продюсер: Аллен Маршалл Палмер, Джонатан Троппер, Роберт Ф. Филлипс, Питер Макдисси, Алан Болл, Грег Яйтанс, Кристина Йоканович, Дэвид Шиклер / Allen Marshall Palmer, Jonathan Tropper, Robert F. Phillips, Peter Macdissi, Alan Ball, Greg Yaitanes, Christina Jokanovich, David Schickler
Оператор: Кристофер Фалуна / Christopher Faloona
Композитор: Methodic Doubt / Methodic Doubt
Художник: Джереми Кэсселлс, Натали Вайнман, Джонатан А. Карлсон, Джэми Уокер МакКолл, Джим Глостер, Патия Прути, Джеймс Эдвард Феррелл мл., Барб Ливингстон / Jeremy Cassells, Natalie Weinmann, Jonathan A. Carlson, Jamie Walker McCall, Jim Gloster, Patia Prouty, James Edward Ferrell Jr., Barb Livingston
Монтаж: Джон М. Валерио, Эми М. Флеминг, Донн Арон, Майкл О’Халлоран, Миклос Райт, Крис А. Петерсон, Гленн Гарлэнд, Майкл Руссо / John M. Valerio, Amy M. Fleming, Donn Aron, Michael O'Halloran, Miklos Wright, Chris A. Peterson, Glenn Garland, Michael Ruscio

В ролях: Энтони Старр / Antony Starr (Lucas Hood), Ивана Миличевич / Ivana Milicevic (Carrie Hopewell), Ульрих Томсен / Ulrich Thomsen (Kai Proctor), Хун Ли / Hoon Lee (Job), Фрэнки Фэйзон / Frankie Faison (Sugar Bates), Лили Симмонс / Lili Simmons (Rebecca Bowman), Триесте Келли Данн / Trieste Kelly Dunn (Deputy Siobhan Kelly), Рас Блэквелл / Rus Blackwell (Gordon Hopewell)


Описание: Лукас Худ — отбывший наказание в тюрьме вор, который некогда предал своих подельников. После отсидки он приезжает в небольшой городок в Пенсильвании, носящий название Банши, где обманом получает пост местного шерифа. Но это не значит, что он забыл своё криминальное прошлое и теперь служит закону. Гангстеры, которых он когда-то предал, всё еще помнят про него и стремятся отомстить. Назревает жесткое противостояние между новоявленным шерифом и его бывшими приятелями. Спокойствие местного населения нарушается, а убийство следует за убийством, когда шериф начинает «наводить порядок» во вверенном его заботам городке.
Премьера (мир): 11 января 2013
Премьера (РФ): 25 мая 2013

Качество: HDTVRip-AVC
Формат: MKV
Видео кодек: AVC
Аудио кодеk: AC3
Видео: 1040x592 (16:9), 23.976 fps, AVC, 1 624 Kbps
Аудио: AC3, 384 Kbps, 44.1 KHz, 6 ch Ru
Аудио: AC3, 384 Kbps, 48.0 KHz, 6 ch En

Общее
Уникальный идентификатор : 180558279875067270640635124129726837529 (0x87D64281B7E327778A23F5910E65B319)
Полное имя : C:\Users\Milena\Desktop\Bаnshee\Banshee.S04E01.HDTVRip-AVC.Amedia.mkv
Формат : Matroska
Версия формата : Version 4 / Version 2
Размер файла : 1005 Мбайт
Продолжительность : 57 м.
Общий поток : 2440 Кбит/сек
Дата кодирования : UTC 2016-04-02 06:27:31
Программа кодирования : mkvmerge v8.3.0 ('Over the Horizon') 32bit
Библиотека кодирования : XviD4PSP 6.0 / 54.27.101
Attachements : banshee_cover.jpg
DURATION : 00:57:35.478000000
NUMBER_OF_FRAMES : 99210
NUMBER_OF_BYTES : 165862920
_STATISTICS_WRITING_APP : mkvmerge v8.3.0 ('Over the Horizon') 32bit
_STATISTICS_WRITING_DATE_UTC : 2016-04-03 08:06:02
_STATISTICS_TAGS : BPS DURATION NUMBER_OF_FRAMES NUMBER_OF_BYTES

Видео
Идентификатор : 1
Формат : AVC
Формат/Информация : Advanced Video Codec
Профиль формата : High@L4.1
Параметр CABAC формата : Да
Параметр ReFrames формата : 3 кадра
Идентификатор кодека : V_MPEG4/ISO/AVC
Продолжительность : 57 м.
Битрейт : 1624 Кбит/сек
Ширина : 1040 пикселей
Высота : 592 пикселя
Соотношение сторон : 16:9
Режим частоты кадров : Постоянный
Частота кадров : 23,976 кадра/сек
Цветовое пространство : YUV
Субдискретизация насыщенности : 4:2:0
Битовая глубина : 8 бит
Тип развёртки : Прогрессивная
Бит/(Пиксели*Кадры) : 0.110
Размер потока : 669 Мбайт (67%)
Библиотека кодирования : x264 core 128 r2216M 198a7ea
Настройки программы : cabac=1 / ref=3 / deblock=1:0:0 / analyse=0x3:0x133 / me=hex / subme=7 / psy=1 / psy_rd=1.00:0.20 / mixed_ref=1 / me_range=16 / chroma_me=1 / trellis=1 / 8x8dct=1 / cqm=0 / deadzone=21,11 / fast_pskip=1 / chroma_qp_offset=-3 / threads=2 / lookahead_threads=1 / sliced_threads=0 / nr=0 / decimate=1 / interlaced=0 / bluray_compat=0 / constrained_intra=0 / bframes=3 / b_pyramid=1 / b_adapt=2 / b_bias=0 / direct=3 / weightb=1 / open_gop=0 / weightp=2 / keyint=230 / keyint_min=23 / scenecut=40 / intra_refresh=0 / rc_lookahead=40 / rc=crf / mbtree=1 / crf=20.0 / qcomp=0.60 / qpmin=10 / qpmax=51 / qpstep=4 / ip_ratio=1.40 / aq=1:1.00
Язык : English
Default : Да
Forced : Нет
DURATION : 00:57:35.786000000
NUMBER_OF_FRAMES : 82856
NUMBER_OF_BYTES : 721390572
_STATISTICS_WRITING_APP : mkvmerge v8.3.0 ('Over the Horizon') 32bit
_STATISTICS_WRITING_DATE_UTC : 2016-04-03 08:06:02
_STATISTICS_TAGS : BPS DURATION NUMBER_OF_FRAMES NUMBER_OF_BYTES

Аудио #1
Идентификатор : 2
Формат : AC-3
Формат/Информация : Audio Coding 3
Расширение режима : CM (complete main)
Параметр Endianness формата : Big
Идентификатор кодека : A_AC3
Продолжительность : 57 м.
Вид битрейта : Постоянный
Битрейт : 384 Кбит/сек
Каналы : 6 каналов
Расположение каналов : Front: L C R, Side: L R, LFE
Частота : 44,1 КГц
Метод сжатия : С потерями
Размер потока : 158 Мбайт (16%)
Язык : Russian
Default : Да
Forced : Нет

Аудио #2
Идентификатор : 3
Формат : AC-3
Формат/Информация : Audio Coding 3
Расширение режима : CM (complete main)
Параметр Endianness формата : Big
Идентификатор кодека : A_AC3
Продолжительность : 57 м.
Вид битрейта : Постоянный
Битрейт : 384 Кбит/сек
Каналы : 6 каналов
Расположение каналов : Front: L C R, Side: L R, LFE
Частота : 48,0 КГц
Метод сжатия : С потерями
Размер потока : 158 Мбайт (16%)
Язык : English
Default : Нет
Forced : Нет


4.01 Something Out of the Bible / (01.04.2016)
4.02 The Burden of Beauty / (08.04.2016)
4.03 Job / (15.04.2016)
4.04 Innocent Might Be a Bit of a Stretch / (22.04.2016)
4.05 A Little Late to Grow a Pair / (29.04.2016)
4.06 Only One Way a Dogfight Ends / (06.05.2016)
4.07 Truths Other Than the Ones You Tell Yourself / (13.05.2016)
4.08 Реквием / Requiem (20.05.2016)
скриншот   скриншот   скриншот   скриншот   скриншот   скриншот  
Когда раздача ведётся путём добавления новых серий, при каждом добавлении создётся новый торрент. Чтобы начать докачку новой серии, пользователям необходимо сделать следующее:
(1) остановить скачивание,
(2) удалить старый торрент у себя из клиента (старые серии удалять не надо),
(3) скачать новый торрент и запустить его у себя в клиенте вместо старого, при этом указать клиенту путь в старую папку, куда и должно происходить скачивание новых серий.
Ваш клиент при этом должен произвести хеширование (проверку) старой папки (если не производит сам - помогите ему сделать это), и будет докачивать только те серии, которых у вас ещё нет. Старые серии при этом не удаляются, а продолжают раздаваться!
Eсли вы уже удалили старые серии, то предотвратить повторную закачку старых серий можно, отжав галочку в соответсвующих местах при запуске нового торрента. По возможности, желательно не удалять старые серии как можно дольше, чтобы релизёр не столько продолжал раздавать старые серии, а смог сконцентрироваться на новых.



Приятного просмотра!pb.wtf



Скачать Банши через торрент http://s42.radikal.ru/i096/1604/4f/ea5d11532f3b.jpg Скачать фильм Банши через торрент бесплантно в хорошем качестве Описание: Лукас Худ — отбывший наказание в тюрьме вор, который некогда предал своих подельников. После отсидки он приезжает в небольшой ... 9.8 10 11
Info! Серебряная раздача, засчитывается только 50% скачанного.
Торрент: Зарегистрирован [2016-04-10 06:06] · скачан: 126 раз
Статус: √ проверено
Размер: 1.72 GB
Как cкачать? Как скачать Банши через торрент | qTorrent



Последний раз редактировалось: Milеna (2016-04-10 07:15), всего редактировалось 1 раз

28-11-2019 20:33  

Отключить всю рекламу на сайте

10-04-2016 08:34 Банши Скачать торрент  

Спасибо давно ждалpb.wtf



13-04-2016 14:44 Банши Скачать торрент  

в 3м сезоне должно быть 10 серий?pb.wtf



20-04-2016 18:09 Банши Скачать торрент  

третья давно вышлаpb.wtf



03-05-2016 11:12 Банши Скачать торрент  

vicin20061 писал(а):

в 3м сезоне должно быть 10 серий?

8pb.wtf



20-08-2016 13:59 Банши Скачать торрент  

А где же остальные серии?pb.wtf



    Дорогой пользователь! Огромная просьба, поблагодарите релизера, оцените раздачу и оставьте свои комментарий, если Вы скачали Банши через торрент бесплатно! Внесите свою лепту в развитие PiratBit!
    Комментировать посты могут только пользователи прошедшие не сложную регистрацию
    Показать сообщения:    

    Банши через торрент
    Скачать бесплатно Банши
    Банши скачать торрент
    Банши смотреть онлайн
    Cкачать фильм Банши бесплатно
    Банши скачать торрент в хорошем качестве
    Банши смотреть онлайн бесплатно в хорошем качестве


    Вы не можете начинать темы
    Вы не можете отвечать на сообщения
    Вы не можете редактировать свои сообщения
    Вы не можете удалять свои сообщения
    Вы не можете голосовать в опросах
    Вы не можете прикреплять файлы к сообщениям
    Вы можете скачивать файлы