Наша группа ВК в очередной раз забанена мы уходим в Телеграм, присоединяйтесь!!!

Лицензия

30

iTunes

мы

iTunes

1

1 сезон

Чернобыль

iTunes

1+1

iTunes

Закатать в асфальт

8 сезон

Игра престолов

1 сезон

Ральф против интернета

ИГРА 18+

pack

ВАЖНО

!!Акция!!

Alien_RageХит недели

RePack

Resident Evil 21
pack

RePack

Metro:Exodus

!!Акция!!

Alien_Rage

RePack

fifa19

RePack

Assassins Creed: Odyssey

RePack

NEED FOR SPEED™ PAYBACK

3 сезон

9 сезон

Бесстыжие 9 сезон

Все сериалы

все сериалы на PB.wtf

RePack

FAR CRY 5
Ребята, катастрофически не хватает 2730р. для оплаты серверов за АПРЕЛЬ (всвязи с блокировками трафик упал в 3 раза), 1-2р., выручайте.
  

Ричард III / Richard III (Лоуренс Оливье) [1955, драма, военный, биография, история, экранизация, BDRip 720p by msltel] DVO (профессиональный) pb.wtf

Ричард III через торрент pb.wtf

Размер: 6.34 GB | Добавлен: 3 года 1 мес. назад | Торрент скачан:30 раз
Скачать  

03-04-2016 08:40 Ричард III Скачать торрент  

Название: Ричард III
Оригинальное название: Richard III
Год выпуска: 1955
Страна: Великобритания
Жанр: драма, военный, биография, история, экранизация
Продолжительность: 02:38:49
Перевод: профессиональный двухголосый

Режиссёр: Лоуренс Оливье

В ролях: Лоуренс Оливье, Седрик Хардвик, Николас Хэннен, Ральф Ричардсон, Джон Гилгуд, Мэри Керридж, Памела Браун, Пол Хьюсон, Стюарт Аллен, Клер Блум, Расселл Торндайк, Уоллес Боско, Норман Фишер, Эндрю Крикшэнк, Клайв Мортон, Теренс Гринидж, Норман Вуленд, Алек Клуниз, Дэн Каннингэм, Дуглас Уилмер, Лоуренс Нэйсмит, Майкл Гоф, Майкл Риппер, Хелен Хэй, Энди Шайн, Рой Расселл, Джордж Вудбридж, Эзмонд Найт, Джон Лори

Описание: Британский король Ричард III не имел прозвища «Львиное сердце», которое его пращур получил не за доблесть, а за зверскую жестокость. Ричард III геройски погиб в бою с превосходящими силами графа Ричмонда в 1485 году близ Босворта... Экранизация пьесы В.Шекспира.



Качество: BDRip 720p Сравнение с исходником
Формат: MKV
Видео: MPEG-4 AVC, 5330 Кбит/с, 1200x720, 23,976 кадра/с
Аудио 1: русский, AC3, 192 kbps, 2 ch, 48 kHz [профессиональный двухголосый]
Аудио 2: английский, AC3, 192 kbps, 1 ch, 48 kHz [оригинал]
Субтитры 1: русские
Субтитры 2: английские (для слабослышащих)
Общее
Уникальный идентификатор : 206088697762067478101730926535540542181 (0x9B0B3D4AC22AC2A089C9B6BA68010AE5)
Полное имя : D:\Video\Ричард lll.1955.BDRip.720p.mkv
Формат : Matroska
Версия формата : Version 4 / Version 2
Размер файла : 6,34 Гбайт
Продолжительность : 2 ч. 38 м.
Общий поток : 5717 Кбит/сек
Дата кодирования : UTC 2016-04-02 11:23:36
Программа кодирования : mkvmerge v8.2.0 ('World of Adventure') 64bit
Библиотека кодирования : libebml v1.3.1 + libmatroska v1.4.2

Видео
Идентификатор : 1
Формат : AVC
Формат/Информация : Advanced Video Codec
Профиль формата : High@L4.1
Параметр CABAC формата : Да
Параметр ReFrames формата : 9 кадров
Идентификатор кодека : V_MPEG4/ISO/AVC
Продолжительность : 2 ч. 38 м.
Битрейт : 5330 Кбит/сек
Ширина : 1200 пикселей
Высота : 720 пикселей
Соотношение сторон : 5:3
Режим частоты кадров : Постоянный
Частота кадров : 23,976 (24000/1001) кадра/сек
Цветовое пространство : YUV
Субдискретизация насыщенности : 4:2:0
Битовая глубина : 8 бит
Тип развёртки : Прогрессивная
Бит/(Пиксели*Кадры) : 0.257
Размер потока : 5,91 Гбайт (93%)
Библиотека кодирования : x264 core 146 r2538 121396c
Настройки программы : cabac=1 / ref=9 / deblock=1:-3:-3 / analyse=0x3:0x113 / me=umh / subme=10 / psy=1 / psy_rd=1.00:0.15 / mixed_ref=1 / me_range=32 / chroma_me=1 / trellis=2 / 8x8dct=1 / cqm=0 / deadzone=21,11 / fast_pskip=1 / chroma_qp_offset=-3 / threads=6 / lookahead_threads=1 / sliced_threads=0 / nr=0 / decimate=1 / interlaced=0 / bluray_compat=0 / constrained_intra=0 / bframes=9 / b_pyramid=2 / b_adapt=2 / b_bias=0 / direct=1 / weightb=1 / open_gop=0 / weightp=2 / keyint=230 / keyint_min=23 / scenecut=40 / intra_refresh=0 / rc_lookahead=40 / rc=crf / mbtree=0 / crf=19.0 / qcomp=0.60 / qpmin=0 / qpmax=69 / qpstep=4 / vbv_maxrate=40000 / vbv_bufsize=50000 / crf_max=0.0 / nal_hrd=none / filler=0 / ip_ratio=1.40 / pb_ratio=1.30 / aq=1:1.00
Язык : English
Default : Да
Forced : Нет

Аудио #1
Идентификатор : 2
Формат : AC-3
Формат/Информация : Audio Coding 3
Расширение режима : CM (complete main)
Параметр Endianness формата : Big
Идентификатор кодека : A_AC3
Продолжительность : 2 ч. 38 м.
Вид битрейта : Постоянный
Битрейт : 192 Кбит/сек
Каналы : 2 канала
Расположение каналов : Front: L R
Частота : 48,0 КГц
Частота кадров : 31,250 кадров/сек (1536 spf)
Метод сжатия : С потерями
Размер потока : 218 Мбайт (3%)
Заголовок : DVO (R5)
Язык : Russian
Default : Да
Forced : Нет

Аудио #2
Идентификатор : 3
Формат : AC-3
Формат/Информация : Audio Coding 3
Расширение режима : CM (complete main)
Параметр Endianness формата : Big
Идентификатор кодека : A_AC3
Продолжительность : 2 ч. 38 м.
Вид битрейта : Постоянный
Битрейт : 192 Кбит/сек
Каналы : 1 канал
Расположение каналов : Front: C
Частота : 48,0 КГц
Частота кадров : 31,250 кадров/сек (1536 spf)
Метод сжатия : С потерями
Размер потока : 218 Мбайт (3%)
Заголовок : Original
Язык : English
Default : Нет
Forced : Нет

Текст #1
Идентификатор : 4
Формат : UTF-8
Идентификатор кодека : S_TEXT/UTF8
Идентификатор кодека/Информация : UTF-8 Plain Text
Продолжительность : 2 ч. 32 м.
Битрейт : 100 бит/сек
Count of elements : 1402
Размер потока : 112 Кбайт (0%)
Заголовок : русский
Язык : Russian
Default : Нет
Forced : Нет

Текст #2
Идентификатор : 5
Формат : UTF-8
Идентификатор кодека : S_TEXT/UTF8
Идентификатор кодека/Информация : UTF-8 Plain Text
Продолжительность : 2 ч. 33 м.
Битрейт : 73 бит/сек
Count of elements : 2108
Размер потока : 83,2 Кбайт (0%)
Заголовок : нглийский (для слабослышащих)
Язык : English
Default : Нет
Forced : Нет
pb.wtf



Скачать Ричард III через торрент http://s018.radikal.ru/i518/1604/24/867f390d7b8b.jpg Скачать фильм Ричард III через торрент бесплантно в хорошем качестве Описание: Британский король Ричард III не имел прозвища «Львиное сердце», которое его пращур получил не за доблесть, а за зверскую ... 5 10 1
Info! Золотая раздача, скачанное не засчитывается.
Торрент: Зарегистрирован [2016-04-03 08:40] · скачан: 30 раз
Статус: √ проверено
Размер: 6.34 GB
Как cкачать? Как скачать Ричард III через торрент | qTorrent

% Раздел Тема Автор DL S | L
Классика зарубежного кино [ 17.48 GB ] Ричард III / Richard III [1955 военный биография история экранизация BDRip 1080p by msltel] DVO msltel Скачать
1 | 0
Фильмы [HD 720p, 1080p] (Хороший звук DUB, MVO) [ 3.43 GB ] Ричард III / Richard III [1995 военный BDRip 720p by msltel] 3 x MVO msltel Скачать
1 | 0
Фильмы до 2000 г. [ 2.34 GB ] Ричард III / Richard III [1995 военный BDRip AVC by msltel] 3 x MVO msltel Скачать
1 | 0


>> Регистрируемся здесь <<






Отзывы и комментарии о схеме читаем и пишем здесь: ---> Отзывы и комментарии о схеме

Новые благодарочки в телеграм довольных пользователей:
скриншот   скриншот   скриншот   скриншот   скриншот
    Дорогой пользователь! Огромная просьба, поблагодарите релизера, оцените раздачу и оставьте свои комментарий, если Вы скачали Ричард III через торрент бесплатно! Внесите свою лепту в развитие PiratBit!
    Комментировать посты могут только пользователи прошедшие не сложную регистрацию
    Показать сообщения:    

    Ричард III через торрент
    Скачать бесплатно Ричард III
    Ричард III скачать торрент
    Ричард III смотреть онлайн
    Cкачать фильм Ричард III бесплатно
    Ричард III скачать торрент в хорошем качестве
    Ричард III смотреть онлайн бесплатно в хорошем качестве


    Вы не можете начинать темы
    Вы не можете отвечать на сообщения
    Вы не можете редактировать свои сообщения
    Вы не можете удалять свои сообщения
    Вы не можете голосовать в опросах
    Вы не можете прикреплять файлы к сообщениям
    Вы можете скачивать файлы