2 сезон

iTunes

1 сезон

1

iTunes

iTunes

iTunes

1 сезон

RePack

30

ИГРА 18+

pack

ВАЖНО

!!Акция!!

Alien_RageХит недели

RePack

MK11
pack

Забери бонус

RePack

jed

!!Акция!!

Alien_Rage

RePack

fifa19

RePack

Assassins Creed: Odyssey

RePack

NEED FOR SPEED™ PAYBACK

4 сезон

9 сезон

Бесстыжие 9 сезон

Все сериалы

все сериалы на PB.wtf

RePack

FAR CRY 5
  

Крыша мира / Серии 1-19 из 20 (Роман Фокин) [2016 г., Комедия, SATRip] pb.wtf

Крыша мира через торрент pb.wtf

Размер: 6.44 GB | Добавлен: 4 года 6 мес. назад | Торрент скачан:89 раз
Скачать  

03-04-2016 13:07 Крыша мира Скачать торрент  

Крыша мира
Год выпуска: 2016
Страна: Россия, Yellow, Black and White и кинокомпания «Небо»
Жанр: Комедия
Продолжительность: ~ 00:28:00

Режиссер: Роман Фокин

В ролях: Алексей Бардуков, Илья Глинников, Ирина Старшенбаум, Николай Козак, Александр Робак, Ирина Темичева, Светлана Костюкова, Александр Андриенко, Александр Константинов, Андрей Щеткин, Алексей Гришин

Описание: История трех молодых людей, волей случая оказавшихся вместе. И в очень хорошем месте — огромной квартире в самом центре Москвы с выходом на крышу и головокружительным видом на город. Герои решают открыть в квартире хостел — бюджетную гостиницу. У них есть все, чтобы преуспеть — организаторские способности одного, дизайнерский талант другого и, разумеется, сама квартира. Что из этого получится? Знают только они, ну и сварливый сосед — бывший прапорщик — который изо всех сил будет мешать этой бизнес-идее состояться.

Качество: SATRip
Формат: AVI
Видео кодек: XviD
Аудио кодек: MP3
Видео:720x400 (1.80:1), 25 fps, XviD build 73 ~1 608 kbps avg, 0.22 bit/pixel
Аудио#1: 48 kHz, MP3 Dolby Digital, 2/0 (L,R) ch, ~192.00 kbps avg



General
Format : AVI
Format/Info : Audio Video Interleave
File size : 350 MiB
Duration : 27mn 3s
Overall bit rate : 1 810 Kbps
Writing application : VirtualDubMod 1.5.10.3 | http://www.virtualdub-fr.org || (build 2550/release)
Writing library : VirtualDubMod build 2550/release

Video
ID : 0
Format : MPEG-4 Visual
Format profile : Advanced Simple@L5
Format settings, BVOP : 1
Format settings, QPel : No
Format settings, GMC : No warppoints
Format settings, Matrix : Custom
Codec ID : XVID
Codec ID/Hint : XviD
Duration : 27mn 3s
Bit rate : 1 608 Kbps
Width : 720 pixels
Height : 400 pixels
Display aspect ratio : 16:9
Frame rate : 25.000 fps
Color space : YUV
Chroma subsampling : 4:2:0
Bit depth : 8 bits
Scan type : Progressive
Compression mode : Lossy
Bits/(Pixel*Frame) : 0.223
Stream size : 311 MiB (89%)
Writing library : XviD 73

Audio
ID : 1
Format : MP3
Mode extension : CM (complete main)
Format settings, Endianness : Big
Codec ID : 2000
Duration : 27mn 3s
Bit rate mode : Constant
Bit rate : 192 Kbps
Channel(s) : 2 channels
Channel positions : Front: L R
Sampling rate : 48.0 KHz
Frame rate : 31.250 fps (1536 spf)
Compression mode : Lossy
Stream size : 37.2 MiB (11%)
Alignment : Split accross interleaves
Interleave, duration : 40 ms (1.00 video frame)
Interleave, preload duration
Когда раздача ведётся путём добавления новых серий, при каждом добавлении создётся новый торрент. Чтобы начать докачку новой серии, пользователям необходимо сделать следующее:
(1) остановить скачивание,
(2) удалить старый торрент у себя из клиента (старые серии удалять не надо),
(3) скачать новый торрент и запустить его у себя в клиенте вместо старого, при этом указать клиенту путь в старую папку, куда и должно происходить скачивание новых серий.
Ваш клиент при этом должен произвести хеширование (проверку) старой папки (если не производит сам - помогите ему сделать это), и будет докачивать только те серии, которых у вас ещё нет. Старые серии при этом не удаляются, а продолжают раздаваться!
Eсли вы уже удалили старые серии, то предотвратить повторную закачку старых серий можно, отжав галочку в соответсвующих местах при запуске нового торрента. По возможности, желательно не удалять старые серии как можно дольше, чтобы релизёр не столько продолжал раздавать старые серии, а смог сконцентрироваться на новых.
Добавлена 19 серия сериала!!! Обновите торрент!!! Приятного просмотра и не забудьте нажать "спасибо" это лучшая благодарность для автора)))
pb.wtf



Скачать Крыша мира через торрент http://funkyimg.com/i/2b56E.jpg Скачать фильм Крыша мира через торрент бесплантно в хорошем качестве Описание: История трех молодых людей, волей случая оказавшихся вместе. И в очень хорошем месте — огромной квартире в самом центре Москвы с ... 9.1 10 21
Торрент: Зарегистрирован [2016-04-27 19:37] · скачан: 89 раз
Статус: √ проверено
Размер: 6.44 GB
Как cкачать? Как скачать Крыша мира через торрент | qTorrent



Последний раз редактировалось: _Fenixx_ни мужик ни баба (2016-04-07 12:18), всего редактировалось 11 раз(а)

28-11-2019 20:33  

Отключить всю рекламу на сайте

03-04-2016 13:08 Крыша мира Скачать торрент  

Добавлена 7 [06.04.2016 15:20] серия сериала просьба перекачайте торрент)))
Добавил: WEB-DL 720p и WEBDL 1080р
Приятного просмотра))) Не забываем говорить спасибо)))pb.wtf





Последний раз редактировалось: _Fenixx_ни мужик ни баба (2016-04-06 12:30), всего редактировалось 8 раз(а)

03-04-2016 13:20 Крыша мира Скачать торрент  

В качестве, вообще сериал можно посмотреть , не Кухня. Хотя?pb.wtf



03-04-2016 13:29 Крыша мира Скачать торрент  

pb.wtf



03-04-2016 14:08 Крыша мира Скачать торрент  

довольно таки веселый сериал!..сюжет интересный...актеры классные)))...грандмерси раздающему!!!pb.wtf



27-04-2016 19:43 Крыша мира Скачать торрент  

средне,тот же романенко...вдвшник забавный)pb.wtf



    Дорогой пользователь! Огромная просьба, поблагодарите релизера, оцените раздачу и оставьте свои комментарий, если Вы скачали Крыша мира через торрент бесплатно! Внесите свою лепту в развитие PiratBit!
    Комментировать посты могут только пользователи прошедшие не сложную регистрацию
    Показать сообщения:    

    Крыша мира через торрент
    Скачать бесплатно Крыша мира
    Крыша мира скачать торрент
    Крыша мира смотреть онлайн
    Cкачать фильм Крыша мира бесплатно
    Крыша мира скачать торрент в хорошем качестве
    Крыша мира смотреть онлайн бесплатно в хорошем качестве


    Вы не можете начинать темы
    Вы не можете отвечать на сообщения
    Вы не можете редактировать свои сообщения
    Вы не можете удалять свои сообщения
    Вы не можете голосовать в опросах
    Вы не можете прикреплять файлы к сообщениям
    Вы можете скачивать файлы